  0
SECTION
  2
HEADER
  9
$ACADVER
  1
AC1018
  9
$ACADMAINTVER
 70
     0
  9
$DWGCODEPAGE
  3
ANSI_1252
  9
$INSBASE
 10
0.0
 20
0.0
 30
0.0
  9
$EXTMIN
 10
-88.25000003978658
 20
319.8613642537601
 30
0.0
  9
$EXTMAX
 10
208.7499999602115
 20
529.8613642537603
 30
0.0
  9
$LIMMIN
 10
0.0
 20
0.0
  9
$LIMMAX
 10
12.0
 20
9.0
  9
$ORTHOMODE
 70
     0
  9
$REGENMODE
 70
     1
  9
$FILLMODE
 70
     1
  9
$QTEXTMODE
 70
     0
  9
$MIRRTEXT
 70
     1
  9
$LTSCALE
 40
1.0
  9
$ATTMODE
 70
     1
  9
$TEXTSIZE
 40
0.2
  9
$TRACEWID
 40
0.05
  9
$TEXTSTYLE
  7
Standard
  9
$CLAYER
  8
0
  9
$CELTYPE
  6
ByLayer
  9
$CECOLOR
 62
   256
  9
$CELTSCALE
 40
1.0
  9
$DISPSILH
 70
     0
  9
$DIMSCALE
 40
1.0
  9
$DIMASZ
 40
0.18
  9
$DIMEXO
 40
0.0625
  9
$DIMDLI
 40
0.38
  9
$DIMRND
 40
0.0
  9
$DIMDLE
 40
0.0
  9
$DIMEXE
 40
0.18
  9
$DIMTP
 40
0.0
  9
$DIMTM
 40
0.0
  9
$DIMTXT
 40
0.18
  9
$DIMCEN
 40
0.09
  9
$DIMTSZ
 40
0.0
  9
$DIMTOL
 70
     0
  9
$DIMLIM
 70
     0
  9
$DIMTIH
 70
     1
  9
$DIMTOH
 70
     1
  9
$DIMSE1
 70
     0
  9
$DIMSE2
 70
     0
  9
$DIMTAD
 70
     0
  9
$DIMZIN
 70
     0
  9
$DIMBLK
  1

  9
$DIMASO
 70
     1
  9
$DIMSHO
 70
     1
  9
$DIMPOST
  1

  9
$DIMAPOST
  1

  9
$DIMALT
 70
     0
  9
$DIMALTD
 70
     2
  9
$DIMALTF
 40
25.4
  9
$DIMLFAC
 40
1.0
  9
$DIMTOFL
 70
     0
  9
$DIMTVP
 40
0.0
  9
$DIMTIX
 70
     0
  9
$DIMSOXD
 70
     0
  9
$DIMSAH
 70
     0
  9
$DIMBLK1
  1

  9
$DIMBLK2
  1

  9
$DIMSTYLE
  2
Standard
  9
$DIMCLRD
 70
     0
  9
$DIMCLRE
 70
     0
  9
$DIMCLRT
 70
     0
  9
$DIMTFAC
 40
1.0
  9
$DIMGAP
 40
0.09
  9
$DIMJUST
 70
     0
  9
$DIMSD1
 70
     0
  9
$DIMSD2
 70
     0
  9
$DIMTOLJ
 70
     1
  9
$DIMTZIN
 70
     0
  9
$DIMALTZ
 70
     0
  9
$DIMALTTZ
 70
     0
  9
$DIMUPT
 70
     0
  9
$DIMDEC
 70
     4
  9
$DIMTDEC
 70
     4
  9
$DIMALTU
 70
     2
  9
$DIMALTTD
 70
     2
  9
$DIMTXSTY
  7
Standard
  9
$DIMAUNIT
 70
     0
  9
$DIMADEC
 70
     0
  9
$DIMALTRND
 40
0.0
  9
$DIMAZIN
 70
     0
  9
$DIMDSEP
 70
    46
  9
$DIMATFIT
 70
     3
  9
$DIMFRAC
 70
     0
  9
$DIMLDRBLK
  1

  9
$DIMLUNIT
 70
     2
  9
$DIMLWD
 70
    -2
  9
$DIMLWE
 70
    -2
  9
$DIMTMOVE
 70
     0
  9
$LUNITS
 70
     2
  9
$LUPREC
 70
     4
  9
$SKETCHINC
 40
0.1
  9
$FILLETRAD
 40
0.5
  9
$AUNITS
 70
     0
  9
$AUPREC
 70
     0
  9
$MENU
  1
.
  9
$ELEVATION
 40
0.0
  9
$PELEVATION
 40
0.0
  9
$THICKNESS
 40
0.0
  9
$LIMCHECK
 70
     0
  9
$CHAMFERA
 40
0.5
  9
$CHAMFERB
 40
0.5
  9
$CHAMFERC
 40
1.0
  9
$CHAMFERD
 40
0.0
  9
$SKPOLY
 70
     0
  9
$TDCREATE
 40
2458222.607135278
  9
$TDUCREATE
 40
2458222.523801944
  9
$TDUPDATE
 40
2458222.60713581
  9
$TDUUPDATE
 40
2458222.523802477
  9
$TDINDWG
 40
0.0000000116
  9
$TDUSRTIMER
 40
0.0000000116
  9
$USRTIMER
 70
     1
  9
$ANGBASE
 50
0.0
  9
$ANGDIR
 70
     0
  9
$PDMODE
 70
     0
  9
$PDSIZE
 40
0.0
  9
$PLINEWID
 40
0.0
  9
$SPLFRAME
 70
     0
  9
$SPLINETYPE
 70
     6
  9
$SPLINESEGS
 70
     8
  9
$HANDSEED
  5
29C
  9
$SURFTAB1
 70
     6
  9
$SURFTAB2
 70
     6
  9
$SURFTYPE
 70
     6
  9
$SURFU
 70
     6
  9
$SURFV
 70
     6
  9
$UCSBASE
  2

  9
$UCSNAME
  2

  9
$UCSORG
 10
0.0
 20
0.0
 30
0.0
  9
$UCSXDIR
 10
1.0
 20
0.0
 30
0.0
  9
$UCSYDIR
 10
0.0
 20
1.0
 30
0.0
  9
$UCSORTHOREF
  2

  9
$UCSORTHOVIEW
 70
     0
  9
$UCSORGTOP
 10
0.0
 20
0.0
 30
0.0
  9
$UCSORGBOTTOM
 10
0.0
 20
0.0
 30
0.0
  9
$UCSORGLEFT
 10
0.0
 20
0.0
 30
0.0
  9
$UCSORGRIGHT
 10
0.0
 20
0.0
 30
0.0
  9
$UCSORGFRONT
 10
0.0
 20
0.0
 30
0.0
  9
$UCSORGBACK
 10
0.0
 20
0.0
 30
0.0
  9
$PUCSBASE
  2

  9
$PUCSNAME
  2

  9
$PUCSORG
 10
0.0
 20
0.0
 30
0.0
  9
$PUCSXDIR
 10
1.0
 20
0.0
 30
0.0
  9
$PUCSYDIR
 10
0.0
 20
1.0
 30
0.0
  9
$PUCSORTHOREF
  2

  9
$PUCSORTHOVIEW
 70
     0
  9
$PUCSORGTOP
 10
0.0
 20
0.0
 30
0.0
  9
$PUCSORGBOTTOM
 10
0.0
 20
0.0
 30
0.0
  9
$PUCSORGLEFT
 10
0.0
 20
0.0
 30
0.0
  9
$PUCSORGRIGHT
 10
0.0
 20
0.0
 30
0.0
  9
$PUCSORGFRONT
 10
0.0
 20
0.0
 30
0.0
  9
$PUCSORGBACK
 10
0.0
 20
0.0
 30
0.0
  9
$USERI1
 70
     0
  9
$USERI2
 70
     0
  9
$USERI3
 70
     0
  9
$USERI4
 70
     0
  9
$USERI5
 70
     0
  9
$USERR1
 40
18.1
  9
$USERR2
 40
0.0
  9
$USERR3
 40
0.0
  9
$USERR4
 40
0.0
  9
$USERR5
 40
0.0
  9
$WORLDVIEW
 70
     1
  9
$SHADEDGE
 70
     3
  9
$SHADEDIF
 70
    70
  9
$TILEMODE
 70
     1
  9
$MAXACTVP
 70
    64
  9
$PINSBASE
 10
0.0
 20
0.0
 30
0.0
  9
$PLIMCHECK
 70
     0
  9
$PEXTMIN
 10
1.00000000000000E+20
 20
1.00000000000000E+20
 30
1.00000000000000E+20
  9
$PEXTMAX
 10
-1.00000000000000E+20
 20
-1.00000000000000E+20
 30
-1.00000000000000E+20
  9
$PLIMMIN
 10
0.0
 20
0.0
  9
$PLIMMAX
 10
12.0
 20
9.0
  9
$UNITMODE
 70
     0
  9
$VISRETAIN
 70
     1
  9
$PLINEGEN
 70
     0
  9
$PSLTSCALE
 70
     1
  9
$TREEDEPTH
 70
  3020
  9
$CMLSTYLE
  2
Standard
  9
$CMLJUST
 70
     0
  9
$CMLSCALE
 40
1.0
  9
$PROXYGRAPHICS
 70
     1
  9
$MEASUREMENT
 70
     1
  9
$CELWEIGHT
370
    -1
  9
$ENDCAPS
280
     0
  9
$JOINSTYLE
280
     0
  9
$LWDISPLAY
290
     0
  9
$INSUNITS
 70
     4
  9
$HYPERLINKBASE
  1

  9
$STYLESHEET
  1

  9
$XEDIT
290
     1
  9
$CEPSNTYPE
380
     0
  9
$PSTYLEMODE
290
     1
  9
$FINGERPRINTGUID
  2
{5023C321-A597-48E0-A7EA-70D573D37DCF}
  9
$VERSIONGUID
  2
{FAEB1C32-E019-11D5-929B-00C0DF256EC4}
  9
$EXTNAMES
290
     1
  9
$PSVPSCALE
 40
0.0
  9
$OLESTARTUP
290
     0
  9
$SORTENTS
280
   127
  9
$INDEXCTL
280
     0
  9
$HIDETEXT
280
     1
  9
$XCLIPFRAME
290
     0
  9
$HALOGAP
280
     0
  9
$OBSCOLOR
 70
   257
  9
$OBSLTYPE
280
     0
  9
$INTERSECTIONDISPLAY
280
     0
  9
$INTERSECTIONCOLOR
 70
   257
  9
$DIMASSOC
280
     2
  9
$PROJECTNAME
  1

  0
ENDSEC
  0
SECTION
  2
CLASSES
  0
CLASS
  1
ACDBDICTIONARYWDFLT
  2
AcDbDictionaryWithDefault
  3
ObjectDBX Classes
 90
        0
 91
        4
280
     0
281
     0
  0
CLASS
  1
VISUALSTYLE
  2
AcDbVisualStyle
  3
ObjectDBX Classes
 90
     4095
 91
        4
280
     0
281
     0
  0
CLASS
  1
MATERIAL
  2
AcDbMaterial
  3
ObjectDBX Classes
 90
     1153
 91
        4
280
     0
281
     0
  0
ENDSEC
  0
SECTION
  2
TABLES
  0
TABLE
  2
VPORT
  5
8
330
0
100
AcDbSymbolTable
 70
     1
  0
VPORT
  5
29
330
8
100
AcDbSymbolTableRecord
100
AcDbViewportTableRecord
  2
*Active
 70
     0
 10
0.0
 20
0.0
 11
1.0
 21
1.0
 12
60.24999996021246
 22
424.8613642537601
 13
0.0
 23
0.0
 14
0.5
 24
0.5
 15
0.5
 25
0.5
 16
0.0
 26
0.0
 36
1.0
 17
0.0
 27
0.0
 37
0.0
 40
231.0000000000002
 41
1.60267857142857
 42
50.0
 43
0.0
 44
0.0
 50
0.0
 51
0.0
 71
     0
 72
   100
 73
     1
 74
     3
 75
     0
 76
     0
 77
     0
 78
     0
281
     0
 65
     1
110
0.0
120
0.0
130
0.0
111
1.0
121
0.0
131
0.0
112
0.0
122
1.0
132
0.0
 79
     0
146
0.0
  0
ENDTAB
  0
TABLE
  2
LTYPE
  5
5
330
0
100
AcDbSymbolTable
 70
     8
  0
LTYPE
  5
14
330
5
100
AcDbSymbolTableRecord
100
AcDbLinetypeTableRecord
  2
ByBlock
 70
     0
  3

 72
    65
 73
     0
 40
0.0
  0
LTYPE
  5
15
330
5
100
AcDbSymbolTableRecord
100
AcDbLinetypeTableRecord
  2
ByLayer
 70
     0
  3

 72
    65
 73
     0
 40
0.0
  0
LTYPE
  5
16
330
5
100
AcDbSymbolTableRecord
100
AcDbLinetypeTableRecord
  2
Continuous
 70
     0
  3
Solid line
 72
    65
 73
     0
 40
0.0
  0
LTYPE
  5
3F
330
5
100
AcDbSymbolTableRecord
100
AcDbLinetypeTableRecord
  2
DASHED
 70
     0
  3
Dashed
 72
    65
 73
     2
 40
15.0
 49
7.0
 74
     0
 49
-8.0
 74
     0
  0
LTYPE
  5
40
330
5
100
AcDbSymbolTableRecord
100
AcDbLinetypeTableRecord
  2
DOTTED
 70
     0
  3
Dotted
 72
    65
 73
     2
 40
1.0
 49
0.0
 74
     0
 49
-1.0
 74
     0
  0
LTYPE
  5
41
330
5
100
AcDbSymbolTableRecord
100
AcDbLinetypeTableRecord
  2
DOT_CENTER
 70
     0
  3
Dot_Center
 72
    65
 73
     4
 40
14.0
 49
12.0
 74
     0
 49
-1.0
 74
     0
 49
0.0
 74
     0
 49
-1.0
 74
     0
  0
LTYPE
  5
42
330
5
100
AcDbSymbolTableRecord
100
AcDbLinetypeTableRecord
  2
LONG_DASHED
 70
     0
  3
Long_Dashed
 72
    65
 73
     2
 40
15.0
 49
10.0
 74
     0
 49
-5.0
 74
     0
  0
LTYPE
  5
43
330
5
100
AcDbSymbolTableRecord
100
AcDbLinetypeTableRecord
  2
DASH_CENTER
 70
     0
  3
Dash_Center
 72
    65
 73
     4
 40
14.0
 49
11.0
 74
     0
 49
-1.0
 74
     0
 49
1.0
 74
     0
 49
-1.0
 74
     0
  0
LTYPE
  5
44
330
5
100
AcDbSymbolTableRecord
100
AcDbLinetypeTableRecord
  2
PHANTOM
 70
     0
  3
Phantom
 72
    65
 73
     6
 40
13.0
 49
10.0
 74
     0
 49
-1.0
 74
     0
 49
0.0
 74
     0
 49
-1.0
 74
     0
 49
0.0
 74
     0
 49
-1.0
 74
     0
  0
LTYPE
  5
45
330
5
100
AcDbSymbolTableRecord
100
AcDbLinetypeTableRecord
  2
CENTER_DASH_DASH
 70
     0
  3
Center_Dash_Dash
 72
    65
 73
     6
 40
14.0
 49
9.0
 74
     0
 49
-1.0
 74
     0
 49
1.0
 74
     0
 49
-1.0
 74
     0
 49
1.0
 74
     0
 49
-1.0
 74
     0
  0
ENDTAB
  0
TABLE
  2
LAYER
  5
2
330
0
100
AcDbSymbolTable
 70
     2
  0
LAYER
  5
10
330
2
100
AcDbSymbolTableRecord
100
AcDbLayerTableRecord
  2
0
 70
     0
 62
     7
  6
Continuous
370
    -3
390
F
  0
LAYER
  5
46
330
2
100
AcDbSymbolTableRecord
100
AcDbLayerTableRecord
  2
1
 70
     0
 62
     7
  6
Continuous
370
    -3
390
F
  0
ENDTAB
  0
TABLE
  2
STYLE
  5
3
330
0
100
AcDbSymbolTable
 70
     5
  0
STYLE
  5
11
330
3
100
AcDbSymbolTableRecord
100
AcDbTextStyleTableRecord
  2
Standard
 70
     0
 40
0.0
 41
1.0
 50
0.0
 71
     0
 42
0.2
  3
txt
  4

  0
STYLE
  5
B0
330
3
100
AcDbSymbolTableRecord
100
AcDbTextStyleTableRecord
  2
CONVERTER_11
 70
     0
 40
0.0
 41
0.9
 50
0.0
 71
     0
 42
0.2
  3
txt.shx
  4

  0
STYLE
  5
232
330
3
100
AcDbSymbolTableRecord
100
AcDbTextStyleTableRecord
  2
CONVERTER_12
 70
     0
 40
0.0
 41
0.81
 50
0.0
 71
     0
 42
0.2
  3
txt.shx
  4

  0
STYLE
  5
238
330
3
100
AcDbSymbolTableRecord
100
AcDbTextStyleTableRecord
  2
CONVERTER_13
 70
     0
 40
0.0
 41
0.855
 50
0.0
 71
     0
 42
0.2
  3
txt.shx
  4

  0
STYLE
  5
23B
330
3
100
AcDbSymbolTableRecord
100
AcDbTextStyleTableRecord
  2
CONVERTER_14
 70
     0
 40
0.0
 41
0.72
 50
0.0
 71
     0
 42
0.2
  3
txt.shx
  4

  0
ENDTAB
  0
TABLE
  2
VIEW
  5
6
330
0
100
AcDbSymbolTable
 70
     0
  0
ENDTAB
  0
TABLE
  2
UCS
  5
7
330
0
100
AcDbSymbolTable
 70
     0
  0
ENDTAB
  0
TABLE
  2
APPID
  5
9
330
0
100
AcDbSymbolTable
 70
     1
  0
APPID
  5
12
330
9
100
AcDbSymbolTableRecord
100
AcDbRegAppTableRecord
  2
ACAD
 70
     0
  0
ENDTAB
  0
TABLE
  2
DIMSTYLE
  5
A
330
0
100
AcDbSymbolTable
 70
     4
100
AcDbDimStyleTable
  0
DIMSTYLE
105
27
330
A
100
AcDbSymbolTableRecord
100
AcDbDimStyleTableRecord
  2
Standard
 70
     0
178
     0
340
11
  0
DIMSTYLE
105
DE
102
{ACAD_REACTORS
330
DF
102
}
330
A
100
AcDbSymbolTableRecord
100
AcDbDimStyleTableRecord
  2
ME10_DIM_10
 70
     0
 41
3.5
 42
0.5
 44
1.5
 73
     0
 74
     0
 77
     1
 78
     8
140
3.5
147
2.0
172
     1
173
     1
174
     1
175
     1
176
     2
177
     2
178
     3
340
B0
  0
DIMSTYLE
105
12E
102
{ACAD_REACTORS
330
12F
102
}
330
A
100
AcDbSymbolTableRecord
100
AcDbDimStyleTableRecord
  2
ME10_DIM_11
 70
     0
 41
3.5
 42
0.0
 44
2.0
 73
     0
 74
     0
 77
     1
 78
     8
140
3.5
147
2.0
172
     1
173
     1
174
     1
175
     1
176
     2
177
     2
178
     3
340
B0
  0
DIMSTYLE
105
139
102
{ACAD_REACTORS
330
13A
102
}
330
A
100
AcDbSymbolTableRecord
100
AcDbDimStyleTableRecord
  2
ME10_DIM_12
 70
     0
 41
3.5
 42
0.0
 44
2.0
 73
     0
 74
     0
 77
     1
 78
     8
140
3.5
147
2.0
172
     1
173
     1
174
     1
175
     1
176
     2
177
     2
178
     3
340
B0
  0
ENDTAB
  0
TABLE
  2
BLOCK_RECORD
  5
1
330
0
100
AcDbSymbolTable
 70
    20
  0
BLOCK_RECORD
  5
1F
330
1
100
AcDbSymbolTableRecord
100
AcDbBlockTableRecord
  2
*Model_Space
340
22
  0
BLOCK_RECORD
  5
1B
330
1
100
AcDbSymbolTableRecord
100
AcDbBlockTableRecord
  2
*Paper_Space
340
1E
  0
BLOCK_RECORD
  5
23
330
1
100
AcDbSymbolTableRecord
100
AcDbBlockTableRecord
  2
*Paper_Space0
340
26
  0
BLOCK_RECORD
  5
47
330
1
100
AcDbSymbolTableRecord
100
AcDbBlockTableRecord
  2
D_ST_6_TWIN-select__1
340
0
102
{BLKREFS
331
4B
102
}
  0
BLOCK_RECORD
  5
4A
330
1
100
AcDbSymbolTableRecord
100
AcDbBlockTableRecord
  2
Gen1
340
0
102
{BLKREFS
331
7D
102
}
  0
BLOCK_RECORD
  5
4E
330
1
100
AcDbSymbolTableRecord
100
AcDbBlockTableRecord
  2
D_ST_6_TWIN-select__2
340
0
102
{BLKREFS
331
52
102
}
  0
BLOCK_RECORD
  5
51
330
1
100
AcDbSymbolTableRecord
100
AcDbBlockTableRecord
  2
Drfsicht1
340
0
102
{BLKREFS
331
7E
102
}
  0
BLOCK_RECORD
  5
55
330
1
100
AcDbSymbolTableRecord
100
AcDbBlockTableRecord
  2
D_ST_6_TWIN-select__3
340
0
102
{BLKREFS
331
59
102
}
  0
BLOCK_RECORD
  5
58
330
1
100
AcDbSymbolTableRecord
100
AcDbBlockTableRecord
  2
Rckans1
340
0
102
{BLKREFS
331
7F
102
}
  0
BLOCK_RECORD
  5
5C
330
1
100
AcDbSymbolTableRecord
100
AcDbBlockTableRecord
  2
D_ST_6_TWIN-select__4
340
0
102
{BLKREFS
331
60
102
}
  0
BLOCK_RECORD
  5
5F
330
1
100
AcDbSymbolTableRecord
100
AcDbBlockTableRecord
  2
SA_Links1
340
0
102
{BLKREFS
331
80
102
}
  0
BLOCK_RECORD
  5
63
330
1
100
AcDbSymbolTableRecord
100
AcDbBlockTableRecord
  2
D_ST_6_TWIN-select__5
340
0
102
{BLKREFS
331
67
102
}
  0
BLOCK_RECORD
  5
66
330
1
100
AcDbSymbolTableRecord
100
AcDbBlockTableRecord
  2
SA_Rechts1
340
0
102
{BLKREFS
331
81
102
}
  0
BLOCK_RECORD
  5
6A
330
1
100
AcDbSymbolTableRecord
100
AcDbBlockTableRecord
  2
D_ST_6_TWIN-select__6
340
0
102
{BLKREFS
331
6E
102
}
  0
BLOCK_RECORD
  5
6D
330
1
100
AcDbSymbolTableRecord
100
AcDbBlockTableRecord
  2
Vordans1
340
0
102
{BLKREFS
331
82
102
}
  0
BLOCK_RECORD
  5
71
330
1
100
AcDbSymbolTableRecord
100
AcDbBlockTableRecord
  2
_rahmen
340
0
102
{BLKREFS
331
78
102
}
  0
BLOCK_RECORD
  5
74
330
1
100
AcDbSymbolTableRecord
100
AcDbBlockTableRecord
  2
_punkt
340
0
102
{BLKREFS
331
79
102
}
  0
BLOCK_RECORD
  5
77
330
1
100
AcDbSymbolTableRecord
100
AcDbBlockTableRecord
  2
A4I_CS
340
0
102
{BLKREFS
331
83
102
}
  0
BLOCK_RECORD
  5
7C
330
1
100
AcDbSymbolTableRecord
100
AcDbBlockTableRecord
  2
1
340
0
102
{BLKREFS
331
86
102
}
  0
BLOCK_RECORD
  5
D3
330
1
100
AcDbSymbolTableRecord
100
AcDbBlockTableRecord
  2
*D17
340
0
  0
BLOCK_RECORD
  5
125
330
1
100
AcDbSymbolTableRecord
100
AcDbBlockTableRecord
  2
*D18
340
0
  0
BLOCK_RECORD
  5
130
330
1
100
AcDbSymbolTableRecord
100
AcDbBlockTableRecord
  2
*D19
340
0
  0
ENDTAB
  0
ENDSEC
  0
SECTION
  2
BLOCKS
  0
BLOCK
  5
20
330
1F
100
AcDbEntity
  8
0
100
AcDbBlockBegin
  2
*Model_Space
 70
     0
 10
0.0
 20
0.0
 30
0.0
  3
*Model_Space
  1

  0
ENDBLK
  5
21
330
1F
100
AcDbEntity
  8
0
100
AcDbBlockEnd
  0
BLOCK
  5
1C
330
1B
100
AcDbEntity
 67
     1
  8
0
100
AcDbBlockBegin
  2
*Paper_Space
 70
     0
 10
0.0
 20
0.0
 30
0.0
  3
*Paper_Space
  1

  0
ENDBLK
  5
1D
330
1B
100
AcDbEntity
 67
     1
  8
0
100
AcDbBlockEnd
  0
BLOCK
  5
24
330
23
100
AcDbEntity
  8
0
100
AcDbBlockBegin
  2
*Paper_Space0
 70
     0
 10
0.0
 20
0.0
 30
0.0
  3
*Paper_Space0
  1

  0
ENDBLK
  5
25
330
23
100
AcDbEntity
  8
0
100
AcDbBlockEnd
  0
BLOCK
  5
48
330
47
100
AcDbEntity
  8
0
100
AcDbBlockBegin
  2
D_ST_6_TWIN-select__1
 70
     0
 10
95.26235055960012
 20
377.1570845649231
 30
0.0
  3
D_ST_6_TWIN-select__1
  1

  0
LINE
  5
87
330
47
100
AcDbEntity
  8
0
  6
Continuous
 62
     7
100
AcDbLine
 10
173.6376496020923
 20
401.4641956590227
 30
0.0
 11
171.9400716031265
 21
408.2896915582932
 31
0.0
  0
LINE
  5
88
330
47
100
AcDbEntity
  8
0
  6
Continuous
 62
     7
100
AcDbLine
 10
171.9400716031265
 20
408.2896915582932
 30
0.0
 11
173.0400716031265
 21
409.242319502456
 31
0.0
  0
LINE
  5
89
330
47
100
AcDbEntity
  8
0
  6
Continuous
 62
     7
100
AcDbLine
 10
173.0400716031265
 20
409.242319502456
 30
0.0
 11
174.7376496020923
 21
402.4168236031856
 31
0.0
  0
LINE
  5
8A
330
47
100
AcDbEntity
  8
0
  6
Continuous
 62
     7
100
AcDbLine
 10
173.6376496020923
 20
377.1570845649231
 30
0.0
 11
174.7376496020923
 21
378.109712509086
 31
0.0
  0
LINE
  5
8B
330
47
100
AcDbEntity
  8
0
  6
Continuous
 62
     7
100
AcDbLine
 10
174.7376496020923
 20
381.9054834278011
 30
0.0
 11
174.7376496020923
 21
378.109712509086
 31
0.0
  0
LINE
  5
8C
330
47
100
AcDbEntity
  8
0
  6
Continuous
 62
     7
100
AcDbLine
 10
170.8471233010041
 20
377.4282840202716
 30
0.0
 11
173.6376496020923
 21
377.1570845649231
 31
0.0
  0
LINE
  5
8D
330
47
100
AcDbEntity
  8
0
  6
Continuous
 62
     7
100
AcDbLine
 10
174.7376496020923
 20
381.9054834278011
 30
0.0
 11
173.6376496020923
 21
380.9528554836383
 31
0.0
  0
LINE
  5
8E
330
47
100
AcDbEntity
  8
0
  6
Continuous
 62
     7
100
AcDbLine
 10
173.6376496020923
 20
401.4641956590227
 30
0.0
 11
173.6376496020923
 21
394.809261944187
 31
0.0
  0
LINE
  5
8F
330
47
100
AcDbEntity
  8
0
  6
Continuous
 62
     7
100
AcDbLine
 10
173.6376496020923
 20
401.4641956590227
 30
0.0
 11
174.7376496020923
 21
402.4168236031856
 31
0.0
  0
LINE
  5
90
330
47
100
AcDbEntity
  8
0
  6
Continuous
 62
     7
100
AcDbLine
 10
174.7376496020923
 20
395.7618898883499
 30
0.0
 11
173.6376496020923
 21
394.809261944187
 31
0.0
  0
LINE
  5
91
330
47
100
AcDbEntity
  8
0
  6
Continuous
 62
     7
100
AcDbLine
 10
174.7376496020923
 20
395.7618898883499
 30
0.0
 11
174.7376496020923
 21
402.4168236031856
 31
0.0
  0
LINE
  5
92
330
47
100
AcDbEntity
  8
0
  6
Continuous
 62
     7
100
AcDbLine
 10
117.6192034368606
 20
422.6140023548977
 30
0.0
 11
116.9969644273507
 21
424.2658704711553
 31
0.0
  0
LINE
  5
93
330
47
100
AcDbEntity
  8
0
  6
Continuous
 62
     7
100
AcDbLine
 10
116.9969644273507
 20
424.2658704711553
 30
0.0
 11
116.8969644273507
 21
424.179267930777
 31
0.0
  0
LINE
  5
94
330
47
100
AcDbEntity
  8
0
  6
Continuous
 62
     7
100
AcDbLine
 10
96.95992855856582
 20
429.9345944436201
 30
0.0
 11
95.26235055960012
 21
424.0891956590175
 31
0.0
  0
LINE
  5
95
330
47
100
AcDbEntity
  8
0
  6
Continuous
 62
     7
100
AcDbLine
 10
116.8969644273507
 20
424.179267930777
 30
0.0
 11
117.5192034368606
 21
422.5273998145192
 31
0.0
  0
LINE
  5
96
330
47
100
AcDbEntity
  8
0
  6
Continuous
 62
     7
100
AcDbLine
 10
96.95992855856582
 20
429.9345944436201
 30
0.0
 11
116.8969644273507
 21
424.179267930777
 31
0.0
  0
LINE
  5
97
330
47
100
AcDbEntity
  8
0
  6
Continuous
 62
     7
100
AcDbLine
 10
117.9969644273507
 20
425.1318958749399
 30
0.0
 11
98.05992855856582
 21
430.8872223877829
 31
0.0
  0
LINE
  5
98
330
47
100
AcDbEntity
  8
0
  6
Continuous
 62
     7
100
AcDbLine
 10
125.069645676668
 20
421.8200180711298
 30
0.0
 11
125.1696456766679
 21
421.9066206115082
 31
0.0
  0
LINE
  5
99
330
47
100
AcDbEntity
  8
0
  6
Continuous
 62
     7
100
AcDbLine
 10
117.9969644273507
 20
425.1318958749399
 30
0.0
 11
118.1189720762739
 21
424.8080001658706
 31
0.0
  0
LINE
  5
9A
330
47
100
AcDbEntity
  8
0
  6
Continuous
 62
     7
100
AcDbLine
 10
117.7469644273507
 20
424.9153895239936
 30
0.0
 11
117.9969644273507
 21
425.1318958749399
 31
0.0
  0
LINE
  5
9B
330
47
100
AcDbEntity
  8
0
  6
Continuous
 62
     7
100
AcDbLine
 10
117.5192034368606
 20
422.5273998145192
 30
0.0
 11
117.5192034368606
 21
416.2054143668943
 31
0.0
  0
LINE
  5
9C
330
47
100
AcDbEntity
  8
0
  6
Continuous
 62
     7
100
AcDbLine
 10
116.9969644273507
 20
424.2658704711553
 30
0.0
 11
125.1696456766679
 21
421.9066206115082
 31
0.0
  0
LINE
  5
9D
330
47
100
AcDbEntity
  8
0
  6
Continuous
 62
     7
100
AcDbLine
 10
117.7469644273507
 20
424.9153895239936
 30
0.0
 11
125.9196456766679
 21
422.5561396643466
 31
0.0
  0
LINE
  5
9E
330
47
100
AcDbEntity
  8
0
  6
Continuous
 62
     7
100
AcDbLine
 10
95.26235055960012
 20
417.4342619441893
 30
0.0
 11
95.26235055960012
 21
424.0891956590175
 31
0.0
  0
LINE
  5
9F
330
47
100
AcDbEntity
  8
0
  6
Continuous
 62
     7
100
AcDbLine
 10
96.95992855856582
 20
429.9345944436201
 30
0.0
 11
98.05992855856582
 21
430.8872223877829
 31
0.0
  0
LINE
  5
A0
330
47
100
AcDbEntity
  8
0
  6
Continuous
 62
     7
100
AcDbLine
 10
117.6192034368606
 20
422.6140023548977
 30
0.0
 11
117.5192034368606
 21
422.5273998145192
 31
0.0
  0
LINE
  5
A1
330
47
100
AcDbEntity
  8
0
  6
Continuous
 62
     7
100
AcDbLine
 10
117.6192034368606
 20
416.2920169072727
 30
0.0
 11
117.6192034368606
 21
422.6140023548977
 31
0.0
  0
LINE
  5
A2
330
47
100
AcDbEntity
  8
0
  6
Continuous
 62
     7
100
AcDbLine
 10
126.1696456766679
 20
422.7726460152927
 30
0.0
 11
125.9196456766679
 21
422.5561396643466
 31
0.0
  0
LINE
  5
A3
330
47
100
AcDbEntity
  8
0
  6
Continuous
 62
     7
100
AcDbLine
 10
117.6192034368606
 20
416.2920169072727
 30
0.0
 11
117.5192034368606
 21
416.2054143668943
 31
0.0
  0
LINE
  5
A4
330
47
100
AcDbEntity
  8
0
  6
Continuous
 62
     7
100
AcDbLine
 10
117.5192034368606
 20
416.2054143668943
 30
0.0
 11
124.4474066671359
 21
414.2054143668943
 31
0.0
  0
LINE
  5
A5
330
47
100
AcDbEntity
  8
0
  6
Continuous
 62
     7
100
AcDbLine
 10
124.4474066671359
 20
414.3208844207323
 30
0.0
 11
117.6192034368606
 21
416.2920169072727
 31
0.0
  0
LINE
  5
A6
330
47
100
AcDbEntity
  8
0
  6
Continuous
 62
     7
100
AcDbLine
 10
124.4474066671359
 20
420.5273998145205
 30
0.0
 11
125.069645676668
 21
421.8200180711298
 31
0.0
  0
LINE
  5
A7
330
47
100
AcDbEntity
  8
0
  6
Continuous
 62
     7
100
AcDbLine
 10
124.4474066671359
 20
414.2054143668943
 30
0.0
 11
124.4474066671359
 21
420.5273998145205
 31
0.0
  0
LINE
  5
A8
330
47
100
AcDbEntity
  8
0
  6
Continuous
 62
     7
100
AcDbLine
 10
125.069645676668
 20
421.8200180711298
 30
0.0
 11
171.9400716031265
 21
408.2896915582932
 31
0.0
  0
LINE
  5
A9
330
47
100
AcDbEntity
  8
0
  6
Continuous
 62
     7
100
AcDbLine
 10
173.0400716031265
 20
409.242319502456
 30
0.0
 11
126.1696456766679
 21
422.7726460152927
 31
0.0
  0
LINE
  5
AA
330
47
100
AcDbEntity
  8
0
  6
Continuous
 62
     7
100
AcDbLine
 10
95.26235055960012
 20
399.2477284647147
 30
0.0
 11
95.26235055960012
 21
406.175931694989
 31
0.0
  0
LINE
  5
AB
330
47
100
AcDbEntity
  8
0
  6
Continuous
 62
     7
100
AcDbLine
 10
173.6376496020923
 20
377.1570845649231
 30
0.0
 11
173.6376496020923
 21
380.9528554836383
 31
0.0
  0
LINE
  5
AC
330
47
100
AcDbEntity
  8
0
  6
Continuous
 62
     7
100
AcDbLine
 10
170.8471233010041
 20
377.4282840202716
 30
0.0
 11
95.26235055960012
 21
399.2477284647147
 31
0.0
  0
SPLINE
  5
AD
330
47
100
AcDbEntity
  8
0
  6
Continuous
 62
     7
100
AcDbSpline
210
0.0
220
0.0
230
1.0
 70
     8
 71
     3
 72
    13
 73
     9
 74
     7
 42
0.000000001
 43
0.0000000001
 44
0.00000001
 40
0.0
 40
0.0
 40
0.0
 40
0.0
 40
1.750351784435677
 40
3.568197722467034
 40
5.465453371735063
 40
7.446017246105184
 40
9.506381378759201
 40
11.63673440881159
 40
11.63673440881159
 40
11.63673440881159
 40
11.63673440881159
 10
95.26235055960012
 20
406.175931694989
 30
0.0
 10
95.51861526469824
 20
406.7018867229035
 30
0.0
 10
96.04102631472217
 20
407.7740777874245
 30
0.0
 10
96.45068957954203
 20
409.563736490919
 30
0.0
 10
96.59539646987574
 20
411.4624571463494
 30
0.0
 10
96.43972488801938
 20
413.4422672966663
 30
0.0
 10
96.01631930627761
 20
415.4637640373535
 30
0.0
 10
95.51645620691197
 20
416.7701566505644
 30
0.0
 10
95.26235055960012
 20
417.4342619441893
 30
0.0
 11
95.26235055960012
 21
406.175931694989
 31
0.0
 11
95.96979401541196
 21
407.7769486008717
 31
0.0
 11
96.4006642552839
 21
409.5429935323127
 31
0.0
 11
96.54536202287903
 21
411.4347233127405
 31
0.0
 11
96.4006642552839
 21
413.4099943882404
 31
0.0
 11
95.96979401541196
 21
415.4248023686572
 31
0.0
 11
95.26235055960012
 21
417.4342619441893
 31
0.0
  0
SPLINE
  5
AE
330
47
100
AcDbEntity
  8
0
  6
Continuous
 62
     7
100
AcDbSpline
210
0.0
220
0.0
230
1.0
 70
     8
 71
     3
 72
    13
 73
     9
 74
     7
 42
0.000000001
 43
0.0000000001
 44
0.00000001
 40
0.0
 40
0.0
 40
0.0
 40
0.0
 40
2.15405603292893
 40
4.39975643833017
 40
6.766606053035224
 40
9.264344638332686
 40
11.884427106563
 40
14.60349689716718
 40
14.60349689716718
 40
14.60349689716718
 40
14.60349689716718
 10
173.6376496020923
 20
394.809261944187
 30
0.0
 10
173.2399742364443
 20
394.2073603537518
 30
0.0
 10
172.4277044083921
 20
392.9779492460086
 30
0.0
 10
171.7823991212211
 20
390.7858601220873
 30
0.0
 10
171.5572893989807
 20
388.4153044163562
 30
0.0
 10
171.8043171499521
 20
385.9197463347024
 30
0.0
 10
172.4700935534573
 20
383.3777134192628
 30
0.0
 10
173.2436834893728
 20
381.7710704575102
 30
0.0
 10
173.6376496020923
 20
380.9528554836383
 30
0.0
 11
173.6376496020923
 21
394.809261944187
 31
0.0
 11
172.5387469117256
 21
392.9565962210368
 31
0.0
 11
171.8636066304344
 21
390.8147848553147
 31
0.0
 11
171.6358995006099
 21
388.4589141938832
 31
0.0
 11
171.8636066304344
 21
385.9715767597512
 31
0.0
 11
172.5387469117257
 21
383.4399729708849
 31
0.0
 11
173.6376496020923
 21
380.9528554836383
 31
0.0
  0
SPLINE
  5
AF
330
47
100
AcDbEntity
  8
0
  6
Continuous
 62
     7
100
AcDbSpline
210
0.0
220
0.0
230
1.0
 70
     8
 71
     3
 72
    13
 73
     9
 74
     7
 42
0.000000001
 43
0.0000000001
 44
0.00000001
 40
0.0
 40
0.0
 40
0.0
 40
0.0
 40
2.154056032928944
 40
4.399756438330114
 40
6.766606053035225
 40
9.264344638332748
 40
11.88442710656304
 40
14.6034968971673
 40
14.6034968971673
 40
14.6034968971673
 40
14.6034968971673
 10
174.7376496020923
 20
395.7618898883499
 30
0.0
 10
174.3399742364443
 20
395.1599882979148
 30
0.0
 10
173.5277044083921
 20
393.9305771901714
 30
0.0
 10
172.8823991212211
 20
391.7384880662502
 30
0.0
 10
172.6572893989807
 20
389.367932360519
 30
0.0
 10
172.9043171499522
 20
386.8723742788652
 30
0.0
 10
173.5700935534572
 20
384.3303413634259
 30
0.0
 10
174.3436834893727
 20
382.7236984016729
 30
0.0
 10
174.7376496020923
 20
381.9054834278011
 30
0.0
 11
174.7376496020923
 21
395.7618898883499
 31
0.0
 11
173.6387469117256
 21
393.9092241651996
 31
0.0
 11
172.9636066304345
 21
391.7674127994776
 31
0.0
 11
172.7358995006099
 21
389.4115421380461
 31
0.0
 11
172.9636066304345
 21
386.924204703914
 31
0.0
 11
173.6387469117256
 21
384.3926009150478
 31
0.0
 11
174.7376496020923
 21
381.9054834278011
 31
0.0
  0
ENDBLK
  5
49
330
47
100
AcDbEntity
  8
0
100
AcDbBlockEnd
  0
BLOCK
  5
4C
330
4A
100
AcDbEntity
  8
0
100
AcDbBlockBegin
  2
Gen1
 70
     0
 10
134.9999999999998
 20
404.0
 30
0.0
  3
Gen1
  1

  0
INSERT
  5
4B
330
4A
100
AcDbEntity
  8
0
100
AcDbBlockReference
  2
D_ST_6_TWIN-select__1
 10
95.26235055960012
 20
377.1570845649231
 30
0.0
  0
MTEXT
  5
B1
330
4A
100
AcDbEntity
  8
1
 62
     6
100
AcDbMText
 10
135.0
 20
371.6227283365217
 30
0.0
 40
5.0
 41
0.0
 71
     2
 72
     1
  1
 
  7
CONVERTER_11
 73
     1
 44
1.32052821128451
  0
ENDBLK
  5
4D
330
4A
100
AcDbEntity
  8
0
100
AcDbBlockEnd
  0
BLOCK
  5
4F
330
4E
100
AcDbEntity
  8
0
100
AcDbBlockBegin
  2
D_ST_6_TWIN-select__2
 70
     0
 10
-30.2499999204149
 20
406.9000000238567
 30
0.0
  3
D_ST_6_TWIN-select__2
  1

  0
LINE
  5
B2
330
4E
100
AcDbEntity
  8
0
  6
Continuous
 62
     7
100
AcDbLine
 10
3.45000007958543
 20
408.6000000238568
 30
0.0
 11
4.16849979889263
 21
408.6000000238568
 31
0.0
  0
LINE
  5
B3
330
4E
100
AcDbEntity
  8
0
  6
Continuous
 62
     7
100
AcDbLine
 10
3.45000007958543
 20
408.6000000238568
 30
0.0
 11
3.45000007958543
 21
409.1000000238568
 31
0.0
  0
LINE
  5
B4
330
4E
100
AcDbEntity
  8
0
  6
Continuous
 62
     7
100
AcDbLine
 10
-5.26849963969601
 20
408.6000000238568
 30
0.0
 11
-5.26849963969606
 21
409.1000000238568
 31
0.0
  0
LINE
  5
B5
330
4E
100
AcDbEntity
  8
0
  6
Continuous
 62
     7
100
AcDbLine
 10
-5.26849963969606
 20
409.1000000238568
 30
0.0
 11
-28.28980569106843
 21
409.1000000238568
 31
0.0
  0
LINE
  5
B6
330
4E
100
AcDbEntity
  8
0
  6
Continuous
 62
     7
100
AcDbLine
 10
-4.54999992041436
 20
409.1000000238568
 30
0.0
 11
3.45000007958543
 21
409.1000000238568
 31
0.0
  0
LINE
  5
B7
330
4E
100
AcDbEntity
  8
0
  6
Continuous
 62
     7
100
AcDbLine
 10
-5.26849963969606
 20
409.1000000238568
 30
0.0
 11
-4.54999992041436
 21
409.1000000238568
 31
0.0
  0
LINE
  5
B8
330
4E
100
AcDbEntity
  8
0
  6
Continuous
 62
     7
100
AcDbLine
 10
3.45000007958543
 20
409.1000000238568
 30
0.0
 11
4.16849979889263
 21
409.1000000238568
 31
0.0
  0
LINE
  5
B9
330
4E
100
AcDbEntity
  8
0
  6
Continuous
 62
     7
100
AcDbLine
 10
-28.28980569106843
 20
406.9000000238567
 30
0.0
 11
-28.28980569106843
 21
409.1000000238568
 31
0.0
  0
LINE
  5
BA
330
4E
100
AcDbEntity
  8
0
  6
Continuous
 62
     7
100
AcDbLine
 10
-4.54999992041435
 20
406.9000000238567
 30
0.0
 11
3.45000007958543
 21
406.9000000238567
 31
0.0
  0
LINE
  5
BB
330
4E
100
AcDbEntity
  8
0
  6
Continuous
 62
     7
100
AcDbLine
 10
-28.28980569106843
 20
406.9000000238567
 30
0.0
 11
-5.26849963969606
 21
406.9000000238567
 31
0.0
  0
LINE
  5
BC
330
4E
100
AcDbEntity
  8
0
  6
Continuous
 62
     7
100
AcDbLine
 10
-28.28980569106843
 20
406.9000000238567
 30
0.0
 11
-30.2499999204149
 21
406.9000000238567
 31
0.0
  0
LINE
  5
BD
330
4E
100
AcDbEntity
  8
0
  6
Continuous
 62
     7
100
AcDbLine
 10
3.45000007958543
 20
406.9000000238567
 30
0.0
 11
4.16849979889263
 21
406.9000000238567
 31
0.0
  0
LINE
  5
BE
330
4E
100
AcDbEntity
  8
0
  6
Continuous
 62
     7
100
AcDbLine
 10
58.28980585023911
 20
406.9000000238567
 30
0.0
 11
60.25000007958576
 21
406.9000000238567
 31
0.0
  0
LINE
  5
BF
330
4E
100
AcDbEntity
  8
0
  6
Continuous
 62
     7
100
AcDbLine
 10
-5.26849963969606
 20
406.9000000238567
 30
0.0
 11
-4.54999992041435
 21
406.9000000238567
 31
0.0
  0
LINE
  5
C0
330
4E
100
AcDbEntity
  8
0
  6
Continuous
 62
     7
100
AcDbLine
 10
-4.54999992041435
 20
407.1000000238568
 30
0.0
 11
3.45000007958543
 21
407.1000000238568
 31
0.0
  0
LINE
  5
C1
330
4E
100
AcDbEntity
  8
0
  6
Continuous
 62
     7
100
AcDbLine
 10
-5.26849963969601
 20
407.1000000238568
 30
0.0
 11
-5.26849963969606
 21
406.9000000238567
 31
0.0
  0
LINE
  5
C2
330
4E
100
AcDbEntity
  8
0
  6
Continuous
 62
     7
100
AcDbLine
 10
4.16849979889263
 20
406.9000000238567
 30
0.0
 11
4.16849979889263
 21
407.1000000238568
 31
0.0
  0
LINE
  5
C3
330
4E
100
AcDbEntity
  8
0
  6
Continuous
 62
     7
100
AcDbLine
 10
3.45000007958543
 20
407.1000000238568
 30
0.0
 11
3.45000007958543
 21
406.9000000238567
 31
0.0
  0
LINE
  5
C4
330
4E
100
AcDbEntity
  8
0
  6
Continuous
 62
     7
100
AcDbLine
 10
3.45000007958543
 20
407.1000000238568
 30
0.0
 11
4.16849979889263
 21
407.1000000238568
 31
0.0
  0
LINE
  5
C5
330
4E
100
AcDbEntity
  8
0
  6
Continuous
 62
     7
100
AcDbLine
 10
-4.54999992041435
 20
407.1000000238568
 30
0.0
 11
-4.54999992041435
 21
406.9000000238567
 31
0.0
  0
LINE
  5
C6
330
4E
100
AcDbEntity
  8
0
  6
Continuous
 62
     7
100
AcDbLine
 10
-5.26849963969601
 20
407.1000000238568
 30
0.0
 11
-4.54999992041435
 21
407.1000000238568
 31
0.0
  0
LINE
  5
C7
330
4E
100
AcDbEntity
  8
0
  6
Continuous
 62
     7
100
AcDbLine
 10
60.25000007958576
 20
409.1000000238568
 30
0.0
 11
60.25000007958576
 21
406.9000000238567
 31
0.0
  0
LINE
  5
C8
330
4E
100
AcDbEntity
  8
0
  6
Continuous
 62
     7
100
AcDbLine
 10
4.16849979889263
 20
409.1000000238568
 30
0.0
 11
4.16849979889263
 21
408.6000000238568
 31
0.0
  0
LINE
  5
C9
330
4E
100
AcDbEntity
  8
0
  6
Continuous
 62
     7
100
AcDbLine
 10
58.28980585023911
 20
406.9000000238567
 30
0.0
 11
58.28980585023911
 21
409.1000000238568
 31
0.0
  0
LINE
  5
CA
330
4E
100
AcDbEntity
  8
0
  6
Continuous
 62
     7
100
AcDbLine
 10
4.16849979889263
 20
406.9000000238567
 30
0.0
 11
58.28980585023911
 21
406.9000000238567
 31
0.0
  0
LINE
  5
CB
330
4E
100
AcDbEntity
  8
0
  6
Continuous
 62
     7
100
AcDbLine
 10
58.28980585023911
 20
409.1000000238568
 30
0.0
 11
4.16849979889263
 21
409.1000000238568
 31
0.0
  0
LINE
  5
CC
330
4E
100
AcDbEntity
  8
0
  6
Continuous
 62
     7
100
AcDbLine
 10
58.28980585023911
 20
409.1000000238568
 30
0.0
 11
60.25000007958576
 21
409.1000000238568
 31
0.0
  0
LINE
  5
CD
330
4E
100
AcDbEntity
  8
0
  6
Continuous
 62
     7
100
AcDbLine
 10
-30.2499999204149
 20
409.1000000238568
 30
0.0
 11
-30.2499999204149
 21
406.9000000238567
 31
0.0
  0
LINE
  5
CE
330
4E
100
AcDbEntity
  8
0
  6
Continuous
 62
     7
100
AcDbLine
 10
-4.54999992041436
 20
408.6000000238568
 30
0.0
 11
3.45000007958543
 21
408.6000000238568
 31
0.0
  0
LINE
  5
CF
330
4E
100
AcDbEntity
  8
0
  6
Continuous
 62
     7
100
AcDbLine
 10
-5.26849963969601
 20
408.6000000238568
 30
0.0
 11
-4.54999992041436
 21
408.6000000238568
 31
0.0
  0
LINE
  5
D0
330
4E
100
AcDbEntity
  8
0
  6
Continuous
 62
     7
100
AcDbLine
 10
-4.54999992041436
 20
408.6000000238568
 30
0.0
 11
-4.54999992041436
 21
409.1000000238568
 31
0.0
  0
LINE
  5
D1
330
4E
100
AcDbEntity
  8
0
  6
Continuous
 62
     7
100
AcDbLine
 10
-30.2499999204149
 20
409.1000000238568
 30
0.0
 11
-28.28980569106843
 21
409.1000000238568
 31
0.0
  0
ENDBLK
  5
50
330
4E
100
AcDbEntity
  8
0
100
AcDbBlockEnd
  0
BLOCK
  5
53
330
51
100
AcDbEntity
  8
0
100
AcDbBlockBegin
  2
Drfsicht1
 70
     0
 10
15.0
 20
408.0000000000099
 30
0.0
  3
Drfsicht1
  1

  0
INSERT
  5
52
330
51
100
AcDbEntity
  8
0
100
AcDbBlockReference
  2
D_ST_6_TWIN-select__2
 10
-30.2499999204149
 20
406.9000000238567
 30
0.0
  0
MTEXT
  5
D2
330
51
100
AcDbEntity
  8
1
 62
     6
100
AcDbMText
 10
15.0
 20
401.8999999761682
 30
0.0
 40
5.0
 41
0.0
 71
     2
 72
     1
  1
 
  7
CONVERTER_11
 73
     1
 44
1.32052821128451
  0
DIMENSION
  5
DF
330
51
100
AcDbEntity
  8
1
100
AcDbDimension
  2
*D17
 10
-40.7537096459494
 20
409.1000000238567
 30
0.0
 11
-44.6787096459494
 21
407.890601516831
 31
0.0
 70
    33
  1
<>
 71
     5
 42
-1.0
 53
90.0
  3
ME10_DIM_10
100
AcDbAlignedDimension
 13
-30.2499999204149
 23
406.9000000238567
 33
0.0
 14
-30.2499999204149
 24
409.1000000238568
 34
0.0
  0
ENDBLK
  5
54
330
51
100
AcDbEntity
  8
0
100
AcDbBlockEnd
  0
BLOCK
  5
56
330
55
100
AcDbEntity
  8
0
100
AcDbBlockBegin
  2
D_ST_6_TWIN-select__3
 70
     0
 10
94.24999992041435
 20
448.1000001709963
 30
0.0
  3
D_ST_6_TWIN-select__3
  1

  0
LINE
  5
E0
330
55
100
AcDbEntity
  8
0
  6
Continuous
 62
     7
100
AcDbLine
 10
184.749999920415
 20
476.7844557143881
 30
0.0
 11
184.749999920415
 21
469.1000001709978
 31
0.0
  0
LINE
  5
E1
330
55
100
AcDbEntity
  8
0
  6
Continuous
 62
     7
100
AcDbLine
 10
94.24999992041441
 20
469.1000001709953
 30
0.0
 11
94.24999992041441
 21
476.7844557143944
 31
0.0
  0
LINE
  5
E2
330
55
100
AcDbEntity
  8
0
  6
Continuous
 62
     7
100
AcDbLine
 10
159.0499999204145
 20
475.1000001709961
 30
0.0
 11
151.0499999204147
 21
475.1000001709961
 31
0.0
  0
LINE
  5
E3
330
55
100
AcDbEntity
  8
0
  6
Continuous
 62
     7
100
AcDbLine
 10
184.749999920415
 20
476.7844557143881
 30
0.0
 11
182.7898056910685
 21
484.1000001709987
 31
0.0
  0
LINE
  5
E4
330
55
100
AcDbEntity
  8
0
  6
Continuous
 62
     7
100
AcDbLine
 10
94.24999992041435
 20
448.7170214475932
 30
0.0
 11
97.47222214264235
 21
448.1000001709963
 31
0.0
  0
LINE
  5
E5
330
55
100
AcDbEntity
  8
0
  6
Continuous
 62
     7
100
AcDbLine
 10
184.749999920415
 20
448.1000001709963
 30
0.0
 11
97.47222214264235
 21
448.1000001709963
 31
0.0
  0
LINE
  5
E6
330
55
100
AcDbEntity
  8
0
  6
Continuous
 62
     7
100
AcDbLine
 10
184.749999920415
 20
456.1000001709948
 30
0.0
 11
184.749999920415
 21
448.1000001709963
 31
0.0
  0
LINE
  5
E7
330
55
100
AcDbEntity
  8
0
  6
Continuous
 62
     7
100
AcDbLine
 10
94.24999992041435
 20
453.100000170998
 30
0.0
 11
94.24999992041435
 21
448.7170214475932
 31
0.0
  0
LINE
  5
E8
330
55
100
AcDbEntity
  8
0
  6
Continuous
 62
     7
100
AcDbLine
 10
159.7684996396962
 20
484.1000001709987
 30
0.0
 11
159.0499999204145
 21
482.4000001709944
 31
0.0
  0
LINE
  5
E9
330
55
100
AcDbEntity
  8
0
  6
Continuous
 62
     7
100
AcDbLine
 10
159.0499999204145
 20
482.4000001709944
 30
0.0
 11
159.0499999204145
 21
475.1000001709961
 31
0.0
  0
LINE
  5
EA
330
55
100
AcDbEntity
  8
0
  6
Continuous
 62
     7
100
AcDbLine
 10
96.21019414976101
 20
484.1000001709987
 30
0.0
 11
94.24999992041441
 21
476.7844557143944
 31
0.0
  0
LINE
  5
EB
330
55
100
AcDbEntity
  8
0
  6
Continuous
 62
     7
100
AcDbLine
 10
96.21019414976101
 20
484.1000001709987
 30
0.0
 11
150.3315002011075
 21
484.1000001709987
 31
0.0
  0
LINE
  5
EC
330
55
100
AcDbEntity
  8
0
  6
Continuous
 62
     7
100
AcDbLine
 10
151.0499999204147
 20
475.1000001709961
 30
0.0
 11
151.0499999204147
 21
482.4000001709944
 31
0.0
  0
LINE
  5
ED
330
55
100
AcDbEntity
  8
0
  6
Continuous
 62
     7
100
AcDbLine
 10
151.0499999204147
 20
482.4000001709944
 30
0.0
 11
150.3315002011075
 21
484.1000001709987
 31
0.0
  0
LINE
  5
EE
330
55
100
AcDbEntity
  8
0
  6
Continuous
 62
     7
100
AcDbLine
 10
159.7684996396962
 20
484.1000001709987
 30
0.0
 11
150.3315002011075
 21
484.1000001709987
 31
0.0
  0
LINE
  5
EF
330
55
100
AcDbEntity
  8
0
  6
Continuous
 62
     7
100
AcDbLine
 10
159.7684996396962
 20
484.1000001709987
 30
0.0
 11
182.7898056910685
 21
484.1000001709987
 31
0.0
  0
ARC
  5
F0
330
55
100
AcDbEntity
  8
0
  6
Continuous
 62
     7
100
AcDbCircle
 10
81.56142237996822
 20
461.1000001709966
 30
0.0
 40
14.99999999999641
100
AcDbArc
 50
327.7690473644953
 51
32.23095263550467
  0
ARC
  5
F1
330
55
100
AcDbEntity
  8
0
  6
Continuous
 62
     7
100
AcDbCircle
 10
198.2685057550103
 20
462.6000001709963
 30
0.0
 40
15.00000000000023
100
AcDbArc
 50
154.3207113805371
 51
205.6792886194627
  0
ENDBLK
  5
57
330
55
100
AcDbEntity
  8
0
100
AcDbBlockEnd
  0
BLOCK
  5
5A
330
58
100
AcDbEntity
  8
0
100
AcDbBlockBegin
  2
Rckans1
 70
     0
 10
139.5000000000001
 20
466.1000005006791
 30
0.0
  3
Rckans1
  1

  0
INSERT
  5
59
330
58
100
AcDbEntity
  8
0
100
AcDbBlockReference
  2
D_ST_6_TWIN-select__3
 10
94.24999992041435
 20
448.1000001709963
 30
0.0
  0
MTEXT
  5
F2
330
58
100
AcDbEntity
  8
1
 62
     6
100
AcDbMText
 10
139.5000000000001
 20
443.100000023842
 30
0.0
 40
5.0
 41
0.0
 71
     2
 72
     1
  1
 
  7
CONVERTER_11
 73
     1
 44
1.32052821128451
  0
ENDBLK
  5
5B
330
58
100
AcDbEntity
  8
0
100
AcDbBlockEnd
  0
BLOCK
  5
5D
330
5C
100
AcDbEntity
  8
0
100
AcDbBlockBegin
  2
D_ST_6_TWIN-select__4
 70
     0
 10
76.14999997614734
 20
448.1000001709962
 30
0.0
  3
D_ST_6_TWIN-select__4
  1

  0
LINE
  5
F3
330
5C
100
AcDbEntity
  8
0
  6
Continuous
 62
     7
100
AcDbLine
 10
76.14999997614734
 20
456.1000001709948
 30
0.0
 11
76.14999997614734
 21
469.1000001709978
 31
0.0
  0
LINE
  5
F4
330
5C
100
AcDbEntity
  8
0
  6
Continuous
 62
     7
100
AcDbLine
 10
76.14999997614734
 20
456.1000001709948
 30
0.0
 11
78.34999997614733
 21
456.1000001709948
 31
0.0
  0
LINE
  5
F5
330
5C
100
AcDbEntity
  8
0
  6
Continuous
 62
     7
100
AcDbLine
 10
78.34999997614733
 20
456.1000001709948
 30
0.0
 11
78.34999997614733
 21
469.1000001709978
 31
0.0
  0
LINE
  5
F6
330
5C
100
AcDbEntity
  8
0
  6
Continuous
 62
     7
100
AcDbLine
 10
76.14999997614734
 20
469.1000001709978
 30
0.0
 11
78.34999997614733
 21
469.1000001709978
 31
0.0
  0
LINE
  5
F7
330
5C
100
AcDbEntity
  8
0
  6
Continuous
 62
     7
100
AcDbLine
 10
78.34999997614733
 20
469.1000001709978
 30
0.0
 11
78.34999997614733
 21
476.7844557143882
 31
0.0
  0
LINE
  5
F8
330
5C
100
AcDbEntity
  8
0
  6
Continuous
 62
     7
100
AcDbLine
 10
78.34999997614733
 20
484.1000001709987
 30
0.0
 11
78.34999997614733
 21
476.7844557143882
 31
0.0
  0
LINE
  5
F9
330
5C
100
AcDbEntity
  8
0
  6
Continuous
 62
     7
100
AcDbLine
 10
78.34999997614733
 20
484.1000001709987
 30
0.0
 11
76.14999997614734
 21
484.1000001709987
 31
0.0
  0
LINE
  5
FA
330
5C
100
AcDbEntity
  8
0
  6
Continuous
 62
     7
100
AcDbLine
 10
76.14999997614734
 20
476.7844557143881
 30
0.0
 11
76.14999997614734
 21
484.1000001709987
 31
0.0
  0
LINE
  5
FB
330
5C
100
AcDbEntity
  8
0
  6
Continuous
 62
     7
100
AcDbLine
 10
76.14999997614734
 20
476.7844557143881
 30
0.0
 11
78.34999997614733
 21
476.7844557143882
 31
0.0
  0
LINE
  5
FC
330
5C
100
AcDbEntity
  8
0
  6
Continuous
 62
     7
100
AcDbLine
 10
76.14999997614734
 20
456.1000001709948
 30
0.0
 11
76.14999997614734
 21
448.1000001709962
 31
0.0
  0
LINE
  5
FD
330
5C
100
AcDbEntity
  8
0
  6
Continuous
 62
     7
100
AcDbLine
 10
76.14999997614734
 20
476.7844557143881
 30
0.0
 11
76.14999997614734
 21
469.1000001709978
 31
0.0
  0
LINE
  5
FE
330
5C
100
AcDbEntity
  8
0
  6
Continuous
 62
     7
100
AcDbLine
 10
76.14999997614734
 20
448.1000001709962
 30
0.0
 11
78.34999997614733
 21
448.1000001709962
 31
0.0
  0
LINE
  5
FF
330
5C
100
AcDbEntity
  8
0
  6
Continuous
 62
     7
100
AcDbLine
 10
78.34999997614733
 20
448.1000001709962
 30
0.0
 11
78.34999997614733
 21
456.1000001709948
 31
0.0
  0
ENDBLK
  5
5E
330
5C
100
AcDbEntity
  8
0
100
AcDbBlockEnd
  0
BLOCK
  5
61
330
5F
100
AcDbEntity
  8
0
100
AcDbBlockBegin
  2
SA_Links1
 70
     0
 10
77.24999999999423
 20
466.100000500679
 30
0.0
  3
SA_Links1
  1

  0
INSERT
  5
60
330
5F
100
AcDbEntity
  8
0
100
AcDbBlockReference
  2
D_ST_6_TWIN-select__4
 10
76.14999997614734
 20
448.1000001709962
 30
0.0
  0
MTEXT
  5
100
330
5F
100
AcDbEntity
  8
1
 62
     6
100
AcDbMText
 10
77.24999999999511
 20
443.100000023842
 30
0.0
 40
5.0
 41
0.0
 71
     2
 72
     1
  1
 
  7
CONVERTER_11
 73
     1
 44
1.32052821128451
  0
ENDBLK
  5
62
330
5F
100
AcDbEntity
  8
0
100
AcDbBlockEnd
  0
BLOCK
  5
64
330
63
100
AcDbEntity
  8
0
100
AcDbBlockBegin
  2
D_ST_6_TWIN-select__5
 70
     0
 10
-63.34999997614322
 20
448.1000001709962
 30
0.0
  3
D_ST_6_TWIN-select__5
  1

  0
LINE
  5
101
330
63
100
AcDbEntity
  8
0
  6
Continuous
 62
     7
100
AcDbLine
 10
-63.34999997614322
 20
469.1000001709953
 30
0.0
 11
-63.34999997614322
 21
453.1000001709979
 31
0.0
  0
LINE
  5
102
330
63
100
AcDbEntity
  8
0
  6
Continuous
 62
     7
100
AcDbLine
 10
-63.34999997614322
 20
448.7170214475932
 30
0.0
 11
-63.34999997614322
 21
453.1000001709979
 31
0.0
  0
LINE
  5
103
330
63
100
AcDbEntity
  8
0
  6
Continuous
 62
     7
100
AcDbLine
 10
-63.34999997614322
 20
448.1000001709962
 30
0.0
 11
-63.34999997614322
 21
448.7170214475932
 31
0.0
  0
LINE
  5
104
330
63
100
AcDbEntity
  8
0
  6
Continuous
 62
     7
100
AcDbLine
 10
-63.34999997614322
 20
476.7844557143943
 30
0.0
 11
-63.34999997614322
 21
469.1000001709953
 31
0.0
  0
LINE
  5
105
330
63
100
AcDbEntity
  8
0
  6
Continuous
 62
     7
100
AcDbLine
 10
-63.34999997614322
 20
476.7844557143943
 30
0.0
 11
-63.34999997614322
 21
484.1000001709987
 31
0.0
  0
LINE
  5
106
330
63
100
AcDbEntity
  8
0
  6
Continuous
 62
     7
100
AcDbLine
 10
-63.34999997614322
 20
448.7170214475932
 30
0.0
 11
-61.14999997614324
 21
448.7170214475932
 31
0.0
  0
LINE
  5
107
330
63
100
AcDbEntity
  8
0
  6
Continuous
 62
     7
100
AcDbLine
 10
-61.14999997614324
 20
453.100000170998
 30
0.0
 11
-63.34999997614322
 21
453.1000001709979
 31
0.0
  0
LINE
  5
108
330
63
100
AcDbEntity
  8
0
  6
Continuous
 62
     7
100
AcDbLine
 10
-63.34999997614322
 20
448.1000001709962
 30
0.0
 11
-61.14999997614324
 21
448.1000001709963
 31
0.0
  0
LINE
  5
109
330
63
100
AcDbEntity
  8
0
  6
Continuous
 62
     7
100
AcDbLine
 10
-61.14999997614324
 20
469.1000001709953
 30
0.0
 11
-61.14999997614324
 21
453.100000170998
 31
0.0
  0
LINE
  5
10A
330
63
100
AcDbEntity
  8
0
  6
Continuous
 62
     7
100
AcDbLine
 10
-61.14999997614324
 20
453.100000170998
 30
0.0
 11
-61.14999997614324
 21
448.7170214475932
 31
0.0
  0
LINE
  5
10B
330
63
100
AcDbEntity
  8
0
  6
Continuous
 62
     7
100
AcDbLine
 10
-61.14999997614324
 20
448.7170214475932
 30
0.0
 11
-61.14999997614324
 21
448.1000001709963
 31
0.0
  0
LINE
  5
10C
330
63
100
AcDbEntity
  8
0
  6
Continuous
 62
     7
100
AcDbLine
 10
-63.34999997614322
 20
476.7844557143943
 30
0.0
 11
-61.14999997614324
 21
476.7844557143944
 31
0.0
  0
LINE
  5
10D
330
63
100
AcDbEntity
  8
0
  6
Continuous
 62
     7
100
AcDbLine
 10
-63.34999997614322
 20
484.1000001709987
 30
0.0
 11
-61.14999997614324
 21
484.1000001709987
 31
0.0
  0
LINE
  5
10E
330
63
100
AcDbEntity
  8
0
  6
Continuous
 62
     7
100
AcDbLine
 10
-61.14999997614324
 20
484.1000001709987
 30
0.0
 11
-61.14999997614324
 21
476.7844557143944
 31
0.0
  0
LINE
  5
10F
330
63
100
AcDbEntity
  8
0
  6
Continuous
 62
     7
100
AcDbLine
 10
-61.14999997614324
 20
476.7844557143944
 30
0.0
 11
-61.14999997614324
 21
469.1000001709953
 31
0.0
  0
LINE
  5
110
330
63
100
AcDbEntity
  8
0
  6
Continuous
 62
     7
100
AcDbLine
 10
-61.14999997614324
 20
469.1000001709953
 30
0.0
 11
-63.34999997614322
 21
469.1000001709953
 31
0.0
  0
ENDBLK
  5
65
330
63
100
AcDbEntity
  8
0
100
AcDbBlockEnd
  0
BLOCK
  5
68
330
66
100
AcDbEntity
  8
0
100
AcDbBlockBegin
  2
SA_Rechts1
 70
     0
 10
-62.24999999999012
 20
466.1000005006791
 30
0.0
  3
SA_Rechts1
  1

  0
INSERT
  5
67
330
66
100
AcDbEntity
  8
0
100
AcDbBlockReference
  2
D_ST_6_TWIN-select__5
 10
-63.34999997614322
 20
448.1000001709962
 30
0.0
  0
MTEXT
  5
111
330
66
100
AcDbEntity
  8
1
 62
     6
100
AcDbMText
 10
-62.24999999999011
 20
443.1000000238421
 30
0.0
 40
5.0
 41
0.0
 71
     2
 72
     1
  1
 
  7
CONVERTER_11
 73
     1
 44
1.32052821128451
  0
ENDBLK
  5
69
330
66
100
AcDbEntity
  8
0
100
AcDbBlockEnd
  0
BLOCK
  5
6B
330
6A
100
AcDbEntity
  8
0
100
AcDbBlockBegin
  2
D_ST_6_TWIN-select__6
 70
     0
 10
-30.24999992041489
 20
448.1000001709962
 30
0.0
  3
D_ST_6_TWIN-select__6
  1

  0
LINE
  5
112
330
6A
100
AcDbEntity
  8
0
  6
Continuous
 62
     7
100
AcDbLine
 10
3.45000007958542
 20
482.4000001709957
 30
0.0
 11
4.16849979889263
 21
484.1000001709987
 31
0.0
  0
LINE
  5
113
330
6A
100
AcDbEntity
  8
0
  6
Continuous
 62
     7
100
AcDbLine
 10
-5.26849963969606
 20
484.1000001709987
 30
0.0
 11
-4.54999992041435
 21
482.4000001709943
 31
0.0
  0
LINE
  5
114
330
6A
100
AcDbEntity
  8
0
  6
Continuous
 62
     7
100
AcDbLine
 10
-5.26849963969606
 20
484.1000001709987
 30
0.0
 11
4.16849979889263
 21
484.1000001709987
 31
0.0
  0
LINE
  5
115
330
6A
100
AcDbEntity
  8
0
  6
Continuous
 62
     7
100
AcDbLine
 10
57.02777785735782
 20
448.1000001709962
 30
0.0
 11
60.25000007958582
 21
448.7170214475932
 31
0.0
  0
LINE
  5
116
330
6A
100
AcDbEntity
  8
0
  6
Continuous
 62
     7
100
AcDbLine
 10
60.2500000795857
 20
476.7844557143943
 30
0.0
 11
58.28980585023911
 21
484.1000001709987
 31
0.0
  0
LINE
  5
117
330
6A
100
AcDbEntity
  8
0
  6
Continuous
 62
     7
100
AcDbLine
 10
60.2500000795857
 20
476.7844557143943
 30
0.0
 11
60.2500000795857
 21
469.1000001709952
 31
0.0
  0
LINE
  5
118
330
6A
100
AcDbEntity
  8
0
  6
Continuous
 62
     7
100
AcDbLine
 10
60.25000007958582
 20
448.7170214475932
 30
0.0
 11
60.25000007958582
 21
453.1000001709979
 31
0.0
  0
LINE
  5
119
330
6A
100
AcDbEntity
  8
0
  6
Continuous
 62
     7
100
AcDbLine
 10
4.16849979889263
 20
484.1000001709987
 30
0.0
 11
58.28980585023911
 21
484.1000001709987
 31
0.0
  0
LINE
  5
11A
330
6A
100
AcDbEntity
  8
0
  6
Continuous
 62
     7
100
AcDbLine
 10
-28.28980569106842
 20
484.1000001709987
 30
0.0
 11
-5.26849963969606
 21
484.1000001709987
 31
0.0
  0
LINE
  5
11B
330
6A
100
AcDbEntity
  8
0
  6
Continuous
 62
     7
100
AcDbLine
 10
-30.24999992041489
 20
469.1000001709978
 30
0.0
 11
-30.24999992041489
 21
476.7844557143882
 31
0.0
  0
LINE
  5
11C
330
6A
100
AcDbEntity
  8
0
  6
Continuous
 62
     7
100
AcDbLine
 10
-28.28980569106842
 20
484.1000001709987
 30
0.0
 11
-30.24999992041489
 21
476.7844557143882
 31
0.0
  0
LINE
  5
11D
330
6A
100
AcDbEntity
  8
0
  6
Continuous
 62
     7
100
AcDbLine
 10
-30.24999992041489
 20
448.1000001709962
 30
0.0
 11
-30.24999992041489
 21
456.1000001709948
 31
0.0
  0
LINE
  5
11E
330
6A
100
AcDbEntity
  8
0
  6
Continuous
 62
     7
100
AcDbLine
 10
57.02777785735782
 20
448.1000001709962
 30
0.0
 11
-30.24999992041489
 21
448.1000001709962
 31
0.0
  0
LINE
  5
11F
330
6A
100
AcDbEntity
  8
0
  6
Continuous
 62
     7
100
AcDbLine
 10
3.45000007958542
 20
475.1000001709961
 30
0.0
 11
3.45000007958542
 21
482.4000001709957
 31
0.0
  0
LINE
  5
120
330
6A
100
AcDbEntity
  8
0
  6
Continuous
 62
     7
100
AcDbLine
 10
-4.54999992041435
 20
482.4000001709943
 30
0.0
 11
-4.54999992041435
 21
475.1000001709961
 31
0.0
  0
LINE
  5
121
330
6A
100
AcDbEntity
  8
0
  6
Continuous
 62
     7
100
AcDbLine
 10
-4.54999992041435
 20
475.1000001709961
 30
0.0
 11
3.45000007958542
 21
475.1000001709961
 31
0.0
  0
ARC
  5
122
330
6A
100
AcDbEntity
  8
0
  6
Continuous
 62
     7
100
AcDbCircle
 10
72.93857762003191
 20
461.1000001709966
 30
0.0
 40
14.99999999999644
100
AcDbArc
 50
147.7690473644957
 51
212.2309526355051
  0
ARC
  5
123
330
6A
100
AcDbEntity
  8
0
  6
Continuous
 62
     7
100
AcDbCircle
 10
-43.76850575501022
 20
462.6000001709963
 30
0.0
 40
15.00000000000024
100
AcDbArc
 50
334.3207113805373
 51
25.67928861946288
  0
ENDBLK
  5
6C
330
6A
100
AcDbEntity
  8
0
100
AcDbBlockEnd
  0
BLOCK
  5
6F
330
6D
100
AcDbEntity
  8
0
100
AcDbBlockBegin
  2
Vordans1
 70
     0
 10
15.0
 20
466.100000500679
 30
0.0
  3
Vordans1
  1

  0
INSERT
  5
6E
330
6D
100
AcDbEntity
  8
0
100
AcDbBlockReference
  2
D_ST_6_TWIN-select__6
 10
-30.24999992041489
 20
448.1000001709962
 30
0.0
  0
MTEXT
  5
124
330
6D
100
AcDbEntity
  8
1
 62
     6
100
AcDbMText
 10
15.00000000000011
 20
443.100000023842
 30
0.0
 40
5.0
 41
0.0
 71
     2
 72
     1
  1
 
  7
CONVERTER_11
 73
     1
 44
1.32052821128451
  0
DIMENSION
  5
12F
330
6D
100
AcDbEntity
  8
1
100
AcDbDimension
  2
*D18
 10
-42.28980569106842
 20
448.1000001709962
 30
0.0
 11
-46.03980569106842
 21
466.8769739739779
 31
0.0
 70
    32
  1
<>
 71
     5
 42
-1.0
 53
90.0
  3
ME10_DIM_11
100
AcDbAlignedDimension
 13
4.16849979889263
 23
484.1000001709987
 33
0.0
 14
-30.24999992041489
 24
448.1000001709962
 34
0.0
 50
90.0
100
AcDbRotatedDimension
  0
DIMENSION
  5
13A
330
6D
100
AcDbEntity
  8
1
100
AcDbDimension
  2
*D19
 10
-30.24999992041489
 20
431.1271278153303
 30
0.0
 11
15.00000000000011
 21
435.0521278153303
 31
0.0
 70
    32
  1
<>
 71
     5
 42
-1.0
 53
0.00013888888889
  3
ME10_DIM_12
100
AcDbAlignedDimension
 13
60.25000007958582
 23
448.7170214475932
 33
0.0
 14
-30.24999992041489
 24
448.1000001709962
 34
0.0
100
AcDbRotatedDimension
  0
ENDBLK
  5
70
330
6D
100
AcDbEntity
  8
0
100
AcDbBlockEnd
  0
BLOCK
  5
72
330
71
100
AcDbEntity
  8
0
100
AcDbBlockBegin
  2
_rahmen
 70
     0
 10
203.7499999602125
 20
319.8613642537601
 30
0.0
  3
_rahmen
  1

  0
LINE
  5
13B
330
71
100
AcDbEntity
  8
1
  6
DOT_CENTER
 62
     2
100
AcDbLine
 10
78.19185032002508
 20
345.9863642537601
 30
0.0
 11
83.69185032002508
 21
345.9863642537601
 31
0.0
  0
LINE
  5
13C
330
71
100
AcDbEntity
  8
1
  6
PHANTOM
 62
     2
100
AcDbLine
 10
86.94185032002508
 20
348.7363642537601
 30
0.0
 11
86.94185032002508
 21
343.2363642537601
 31
0.0
  0
LINE
  5
13D
330
71
100
AcDbEntity
  8
1
  6
PHANTOM
 62
     2
100
AcDbLine
 10
89.69185032002508
 20
345.9863642537601
 30
0.0
 11
84.19185032002508
 21
345.9863642537601
 31
0.0
  0
LINE
  5
13E
330
71
100
AcDbEntity
  8
1
  6
Continuous
 62
     7
100
AcDbLine
 10
138.5051954334625
 20
333.3613642537601
 30
0.0
 11
138.5051954334625
 21
341.8613642537603
 31
0.0
  0
LINE
  5
13F
330
71
100
AcDbEntity
  8
1
  6
Continuous
 62
     6
100
AcDbLine
 10
110.6051954334624
 20
341.8613642537603
 30
0.0
 11
203.7499999602142
 21
341.8613642537603
 31
0.0
  0
LINE
  5
140
330
71
100
AcDbEntity
  8
1
  6
Continuous
 62
     7
100
AcDbLine
 10
74.20519543346248
 20
341.8613642537603
 30
0.0
 11
74.20519543346248
 21
350.3613642537603
 31
0.0
  0
LINE
  5
141
330
71
100
AcDbEntity
  8
1
  6
Continuous
 62
     7
100
AcDbLine
 10
110.6051954334624
 20
341.8613642537603
 30
0.0
 11
110.6051954334624
 21
350.3613642537603
 31
0.0
  0
LINE
  5
142
330
71
100
AcDbEntity
  8
1
  6
Continuous
 62
     7
100
AcDbLine
 10
168.3315916785354
 20
350.3613642537603
 30
0.0
 11
168.3315916785354
 21
341.8613642537603
 31
0.0
  0
LINE
  5
143
330
71
100
AcDbEntity
  8
1
  6
Continuous
 62
     7
100
AcDbLine
 10
194.831591678535
 20
350.3613642537603
 30
0.0
 11
194.831591678535
 21
341.8613642537603
 31
0.0
  0
LINE
  5
144
330
71
100
AcDbEntity
  8
1
  6
Continuous
 62
     6
100
AcDbLine
 10
5.20519543346251
 20
324.8613642537603
 30
0.0
 11
-39.75000003978749
 21
324.8613642537603
 31
0.0
  0
LINE
  5
145
330
71
100
AcDbEntity
  8
1
  6
Continuous
 62
     7
100
AcDbLine
 10
203.7499999602138
 20
333.3613642537603
 30
0.0
 11
110.6051954334624
 21
333.3613642537603
 31
0.0
  0
LINE
  5
146
102
{ACAD_REACTORS
330
258
330
259
102
}
330
71
100
AcDbEntity
  8
0
  6
Continuous
 62
     2
100
AcDbLine
 10
87.91262437522988
 20
334.1616533694236
 30
0.0
 11
87.91262437522988
 21
335.0341703762268
 31
0.0
  0
LINE
  5
147
102
{ACAD_REACTORS
330
258
330
259
102
}
330
71
100
AcDbEntity
  8
0
  6
Continuous
 62
     2
100
AcDbLine
 10
87.91262437522988
 20
333.2018846619407
 30
0.0
 11
87.91262437522988
 21
332.3293676551375
 31
0.0
  0
LINE
  5
148
102
{ACAD_REACTORS
330
25A
330
25B
102
}
330
71
100
AcDbEntity
  8
0
  6
Continuous
 62
     2
100
AcDbLine
 10
103.2456685115204
 20
334.4234084714641
 30
0.0
 11
104.3493078110885
 21
334.4234084714641
 31
0.0
  0
LINE
  5
149
102
{ACAD_REACTORS
330
25A
330
25B
102
}
330
71
100
AcDbEntity
  8
0
  6
Continuous
 62
     2
100
AcDbLine
 10
104.0153258544818
 20
333.2018846619402
 30
0.0
 11
104.0153258544818
 21
332.3293676551368
 31
0.0
  0
LINE
  5
14A
102
{ACAD_REACTORS
330
264
330
265
102
}
330
71
100
AcDbEntity
  8
0
  6
Continuous
 62
     2
100
AcDbLine
 10
102.1545692391019
 20
335.5140547299509
 30
0.0
 11
103.5525222860422
 21
337.0949137237259
 31
0.0
  0
LINE
  5
14B
102
{ACAD_REACTORS
330
264
330
265
102
}
330
71
100
AcDbEntity
  8
0
  6
Continuous
 62
     2
100
AcDbLine
 10
102.2499926552747
 20
338.5678642537621
 30
0.0
 11
103.5525222860422
 21
337.0949137237259
 31
0.0
  0
LINE
  5
14C
102
{ACAD_REACTORS
330
264
330
265
102
}
330
71
100
AcDbEntity
  8
0
  6
Continuous
 62
     2
100
AcDbLine
 10
104.8550519168086
 20
338.5678642537621
 30
0.0
 11
106.2577761345558
 21
338.5678642537621
 31
0.0
  0
LINE
  5
14D
102
{ACAD_REACTORS
330
264
330
265
102
}
330
71
100
AcDbEntity
  8
0
  6
Continuous
 62
     2
100
AcDbLine
 10
103.5572934568501
 20
335.5140547299509
 30
0.0
 11
104.2538843949158
 21
336.3017865152445
 31
0.0
  0
LINE
  5
14E
102
{ACAD_REACTORS
330
264
330
265
102
}
330
71
100
AcDbEntity
  8
0
  6
Continuous
 62
     2
100
AcDbLine
 10
103.5572934568501
 20
335.5140547299509
 30
0.0
 11
102.1545692391019
 21
335.5140547299509
 31
0.0
  0
LINE
  5
14F
102
{ACAD_REACTORS
330
266
330
267
102
}
330
71
100
AcDbEntity
  8
0
  6
Continuous
 62
     2
100
AcDbLine
 10
102.035289968885
 20
335.5140547299509
 30
0.0
 11
100.7947855586321
 21
335.5140547299509
 31
0.0
  0
LINE
  5
150
102
{ACAD_REACTORS
330
268
330
269
102
}
330
71
100
AcDbEntity
  8
0
  6
Continuous
 62
     2
100
AcDbLine
 10
99.92680595047699
 20
333.3763880633011
 30
0.0
 11
99.62664071328689
 21
334.1442030292877
 31
0.0
  0
LINE
  5
151
102
{ACAD_REACTORS
330
268
330
269
102
}
330
71
100
AcDbEntity
  8
0
  6
Continuous
 62
     2
100
AcDbLine
 10
99.32647547609449
 20
333.3763880633011
 30
0.0
 11
99.92680595047699
 21
333.3763880633011
 31
0.0
  0
LINE
  5
152
102
{ACAD_REACTORS
330
268
330
269
102
}
330
71
100
AcDbEntity
  8
0
  6
Continuous
 62
     2
100
AcDbLine
 10
97.6084354612207
 20
332.1548642537766
 30
0.0
 11
98.84893987147368
 21
332.1548642537766
 31
0.0
  0
LINE
  5
153
102
{ACAD_REACTORS
330
268
330
269
102
}
330
71
100
AcDbEntity
  8
0
  6
Continuous
 62
     2
100
AcDbLine
 10
99.00638850816
 20
335.2086737775877
 30
0.0
 11
100.2468929184127
 21
335.2086737775877
 31
0.0
  0
LINE
  5
154
102
{ACAD_REACTORS
330
268
330
269
102
}
330
71
100
AcDbEntity
  8
0
  6
Continuous
 62
     2
100
AcDbLine
 10
100.2468929184127
 20
335.2086737775877
 30
0.0
 11
101.644845965353
 21
332.1548642537766
 31
0.0
  0
LINE
  5
155
102
{ACAD_REACTORS
330
268
330
269
102
}
330
71
100
AcDbEntity
  8
0
  6
Continuous
 62
     2
100
AcDbLine
 10
100.4043415550991
 20
332.1548642537766
 30
0.0
 11
100.1928615016233
 21
332.6958247979944
 31
0.0
  0
LINE
  5
156
102
{ACAD_REACTORS
330
26A
330
26B
102
}
330
71
100
AcDbEntity
  8
0
  6
Continuous
 62
     2
100
AcDbLine
 10
96.26202235951308
 20
332.1548642537766
 30
0.0
 11
97.4548150616796
 21
332.1548642537766
 31
0.0
  0
LINE
  5
157
102
{ACAD_REACTORS
330
26A
330
26B
102
}
330
71
100
AcDbEntity
  8
0
  6
Continuous
 62
     2
100
AcDbLine
 10
96.26202235951308
 20
334.4234084714641
 30
0.0
 11
96.26202235951308
 21
332.1548642537766
 31
0.0
  0
LINE
  5
158
102
{ACAD_REACTORS
330
26A
330
26B
102
}
330
71
100
AcDbEntity
  8
0
  6
Continuous
 62
     2
100
AcDbLine
 10
95.45092332203848
 20
335.2086737775877
 30
0.0
 11
95.45092332203848
 21
334.4234084714641
 31
0.0
  0
LINE
  5
159
102
{ACAD_REACTORS
330
26C
330
26D
102
}
330
71
100
AcDbEntity
  8
0
  6
Continuous
 62
     2
100
AcDbLine
 10
96.93013720361108
 20
335.5140547299509
 30
0.0
 11
98.1229299057776
 21
335.5140547299509
 31
0.0
  0
LINE
  5
15A
102
{ACAD_REACTORS
330
26C
330
26D
102
}
330
71
100
AcDbEntity
  8
0
  6
Continuous
 62
     2
100
AcDbLine
 10
99.3634343160316
 20
337.2590887435568
 30
0.0
 11
98.1229299057776
 21
338.5678642537621
 31
0.0
  0
LINE
  5
15B
102
{ACAD_REACTORS
330
26C
330
26D
102
}
330
71
100
AcDbEntity
  8
0
  6
Continuous
 62
     2
100
AcDbLine
 10
100.5562270181982
 20
338.5678642537621
 30
0.0
 11
99.3634343160316
 21
338.5678642537621
 31
0.0
  0
LINE
  5
15C
102
{ACAD_REACTORS
330
26C
330
26D
102
}
330
71
100
AcDbEntity
  8
0
  6
Continuous
 62
     2
100
AcDbLine
 10
100.5562270181982
 20
335.5140547299509
 30
0.0
 11
100.5562270181982
 21
338.5678642537621
 31
0.0
  0
LINE
  5
15D
102
{ACAD_REACTORS
330
26C
330
26D
102
}
330
71
100
AcDbEntity
  8
0
  6
Continuous
 62
     2
100
AcDbLine
 10
99.3634343160316
 20
335.5140547299509
 30
0.0
 11
100.5562270181982
 21
335.5140547299509
 31
0.0
  0
LINE
  5
15E
102
{ACAD_REACTORS
330
26C
330
26D
102
}
330
71
100
AcDbEntity
  8
0
  6
Continuous
 62
     2
100
AcDbLine
 10
98.1229299057776
 20
336.8228302401556
 30
0.0
 11
99.3634343160316
 21
335.5140547299509
 31
0.0
  0
LINE
  5
15F
102
{ACAD_REACTORS
330
26E
330
26F
102
}
330
71
100
AcDbEntity
  8
0
  6
Continuous
 62
     2
100
AcDbLine
 10
94.11499549561188
 20
333.8998982673826
 30
0.0
 11
92.87449108535898
 21
335.2086737775877
 31
0.0
  0
LINE
  5
160
102
{ACAD_REACTORS
330
26E
330
26F
102
}
330
71
100
AcDbEntity
  8
0
  6
Continuous
 62
     2
100
AcDbLine
 10
94.11499549561188
 20
335.2086737775877
 30
0.0
 11
94.11499549561188
 21
333.8998982673826
 31
0.0
  0
LINE
  5
161
102
{ACAD_REACTORS
330
26E
330
26F
102
}
330
71
100
AcDbEntity
  8
0
  6
Continuous
 62
     2
100
AcDbLine
 10
95.30778819777828
 20
335.2086737775877
 30
0.0
 11
94.11499549561188
 21
335.2086737775877
 31
0.0
  0
LINE
  5
162
102
{ACAD_REACTORS
330
26E
330
26F
102
}
330
71
100
AcDbEntity
  8
0
  6
Continuous
 62
     2
100
AcDbLine
 10
95.30778819777828
 20
332.1548642537766
 30
0.0
 11
95.30778819777828
 21
335.2086737775877
 31
0.0
  0
LINE
  5
163
102
{ACAD_REACTORS
330
26E
330
26F
102
}
330
71
100
AcDbEntity
  8
0
  6
Continuous
 62
     2
100
AcDbLine
 10
92.87449108535898
 20
333.4636397639812
 30
0.0
 11
94.11499549561188
 21
332.1548642537766
 31
0.0
  0
LINE
  5
164
102
{ACAD_REACTORS
330
26E
330
26F
102
}
330
71
100
AcDbEntity
  8
0
  6
Continuous
 62
     2
100
AcDbLine
 10
92.87449108535898
 20
332.1548642537766
 30
0.0
 11
92.87449108535898
 21
333.4636397639812
 31
0.0
  0
LINE
  5
165
102
{ACAD_REACTORS
330
25E
330
25F
102
}
330
71
100
AcDbEntity
  8
0
  6
Continuous
 62
     2
100
AcDbLine
 10
95.3556508367505
 20
337.8698506483191
 30
0.0
 11
96.69157866317818
 21
337.8698506483191
 31
0.0
  0
LINE
  5
166
102
{ACAD_REACTORS
330
25E
330
25F
102
}
330
71
100
AcDbEntity
  8
0
  6
Continuous
 62
     2
100
AcDbLine
 10
95.3556508367505
 20
336.2120683353934
 30
0.0
 11
95.3556508367505
 21
336.6919526891351
 31
0.0
  0
LINE
  5
167
102
{ACAD_REACTORS
330
25E
330
25F
102
}
330
71
100
AcDbEntity
  8
0
  6
Continuous
 62
     2
100
AcDbLine
 10
96.69157866317818
 20
336.2120683353934
 30
0.0
 11
95.3556508367505
 21
336.2120683353934
 31
0.0
  0
LINE
  5
168
102
{ACAD_REACTORS
330
25E
330
25F
102
}
330
71
100
AcDbEntity
  8
0
  6
Continuous
 62
     2
100
AcDbLine
 10
96.69157866317818
 20
335.5140547299509
 30
0.0
 11
96.69157866317818
 21
336.2120683353934
 31
0.0
  0
LINE
  5
169
102
{ACAD_REACTORS
330
25E
330
25F
102
}
330
71
100
AcDbEntity
  8
0
  6
Continuous
 62
     2
100
AcDbLine
 10
93.54125893939718
 20
335.5140547299509
 30
0.0
 11
96.69157866317818
 21
335.5140547299509
 31
0.0
  0
LINE
  5
16A
102
{ACAD_REACTORS
330
25E
330
25F
102
}
330
71
100
AcDbEntity
  8
0
  6
Continuous
 62
     2
100
AcDbLine
 10
93.54125893939718
 20
338.5678642537621
 30
0.0
 11
96.69157866317818
 21
338.5678642537621
 31
0.0
  0
LINE
  5
16B
102
{ACAD_REACTORS
330
25E
330
25F
102
}
330
71
100
AcDbEntity
  8
0
  6
Continuous
 62
     2
100
AcDbLine
 10
96.69157866317818
 20
337.8698506483191
 30
0.0
 11
96.69157866317818
 21
338.5678642537621
 31
0.0
  0
LINE
  5
16C
102
{ACAD_REACTORS
330
270
330
271
102
}
330
71
100
AcDbEntity
  8
0
  6
Continuous
 62
     2
100
AcDbLine
 10
90.67990344425718
 20
337.4990309204275
 30
0.0
 11
90.67990344425718
 21
338.5678642537621
 31
0.0
  0
LINE
  5
16D
102
{ACAD_REACTORS
330
270
330
271
102
}
330
71
100
AcDbEntity
  8
0
  6
Continuous
 62
     2
100
AcDbLine
 10
90.67990344425718
 20
338.5678642537621
 30
0.0
 11
91.87269614642358
 21
338.5678642537621
 31
0.0
  0
LINE
  5
16E
102
{ACAD_REACTORS
330
270
330
271
102
}
330
71
100
AcDbEntity
  8
0
  6
Continuous
 62
     2
100
AcDbLine
 10
90.67990344425718
 20
336.6483268387947
 30
0.0
 11
89.6302458663497
 21
336.6483268387947
 31
0.0
  0
LINE
  5
16F
102
{ACAD_REACTORS
330
270
330
271
102
}
330
71
100
AcDbEntity
  8
0
  6
Continuous
 62
     2
100
AcDbLine
 10
89.6302458663497
 20
336.6483268387947
 30
0.0
 11
89.6302458663497
 21
335.5140547299509
 31
0.0
  0
LINE
  5
170
102
{ACAD_REACTORS
330
270
330
271
102
}
330
71
100
AcDbEntity
  8
0
  6
Continuous
 62
     2
100
AcDbLine
 10
88.4374531641831
 20
338.5678642537621
 30
0.0
 11
88.4374531641831
 21
335.5140547299509
 31
0.0
  0
LINE
  5
171
102
{ACAD_REACTORS
330
262
330
263
102
}
330
71
100
AcDbEntity
  8
0
  6
Continuous
 62
     2
100
AcDbLine
 10
86.4812731326295
 20
337.1990307589798
 30
0.0
 11
86.4812731326295
 21
337.904758408322
 31
0.0
  0
LINE
  5
172
102
{ACAD_REACTORS
330
262
330
263
102
}
330
71
100
AcDbEntity
  8
0
  6
Continuous
 62
     2
100
AcDbLine
 10
85.24076872237538
 20
335.5140547299509
 30
0.0
 11
86.4812731326295
 21
335.5140547299509
 31
0.0
  0
LINE
  5
173
102
{ACAD_REACTORS
330
262
330
263
102
}
330
71
100
AcDbEntity
  8
0
  6
Continuous
 62
     2
100
AcDbLine
 10
86.4812731326295
 20
335.5140547299509
 30
0.0
 11
86.4812731326295
 21
336.4571329710947
 31
0.0
  0
LINE
  5
174
102
{ACAD_REACTORS
330
25C
330
25D
102
}
330
71
100
AcDbEntity
  8
0
  6
Continuous
 62
     2
100
AcDbLine
 10
80.935822873164
 20
332.8674198093335
 30
0.0
 11
79.45998961215437
 21
332.8674198093335
 31
0.0
  0
LINE
  5
175
102
{ACAD_REACTORS
330
25C
330
25D
102
}
330
71
100
AcDbEntity
  8
0
  6
Continuous
 62
     2
100
AcDbLine
 10
78.44185032002508
 20
338.1436196383601
 30
0.0
 11
78.44185032002508
 21
332.5791088691599
 31
0.0
  0
LINE
  5
176
102
{ACAD_REACTORS
330
25C
330
25D
102
}
330
71
100
AcDbEntity
  8
0
  6
Continuous
 62
     2
100
AcDbLine
 10
78.86609493540789
 20
338.5678642537439
 30
0.0
 11
84.33940702612469
 21
338.5678642537439
 31
0.0
  0
LINE
  5
177
102
{ACAD_REACTORS
330
25C
330
25D
102
}
330
71
100
AcDbEntity
  8
0
  6
Continuous
 62
     2
100
AcDbLine
 10
84.76365164150857
 20
338.1436196383601
 30
0.0
 11
84.76365164150857
 21
332.5791088691599
 31
0.0
  0
LINE
  5
178
102
{ACAD_REACTORS
330
25C
330
25D
102
}
330
71
100
AcDbEntity
  8
0
  6
Continuous
 62
     2
100
AcDbLine
 10
84.33940702612469
 20
332.1548642537766
 30
0.0
 11
78.86609493540789
 21
332.1548642537766
 31
0.0
  0
LINE
  5
179
102
{ACAD_REACTORS
330
25C
330
25D
102
}
330
71
100
AcDbEntity
  8
0
  6
Continuous
 62
     2
100
AcDbLine
 10
81.25153979624059
 20
333.1831367324102
 30
0.0
 11
81.25153979624059
 21
334.7139076639418
 31
0.0
  0
LINE
  5
17A
102
{ACAD_REACTORS
330
25C
330
25D
102
}
330
71
100
AcDbEntity
  8
0
  6
Continuous
 62
     2
100
AcDbLine
 10
81.25153979624059
 20
336.9355671560668
 30
0.0
 11
81.25153979624059
 21
337.5395917751273
 31
0.0
  0
LINE
  5
17B
102
{ACAD_REACTORS
330
25C
330
25D
102
}
330
71
100
AcDbEntity
  8
0
  6
Continuous
 62
     2
100
AcDbLine
 10
79.45998961215437
 20
337.8553086982034
 30
0.0
 11
80.935822873164
 21
337.8553086982034
 31
0.0
  0
LINE
  5
17C
102
{ACAD_REACTORS
330
25C
330
25D
102
}
330
71
100
AcDbEntity
  8
0
  6
Continuous
 62
     2
100
AcDbLine
 10
79.14427268907869
 20
337.5395917751273
 30
0.0
 11
79.14427268907869
 21
333.1831367324102
 31
0.0
  0
LINE
  5
17D
102
{ACAD_REACTORS
330
262
330
263
102
}
330
71
100
AcDbEntity
  8
0
  6
Continuous
 62
     2
100
AcDbLine
 10
86.4812731326295
 20
336.4571329710947
 30
0.0
 11
87.24004072040978
 21
336.4571329710947
 31
0.0
  0
LINE
  5
17E
102
{ACAD_REACTORS
330
262
330
263
102
}
330
71
100
AcDbEntity
  8
0
  6
Continuous
 62
     2
100
AcDbLine
 10
85.24076872237538
 20
338.5678642537621
 30
0.0
 11
87.24004072040978
 21
338.5678642537621
 31
0.0
  0
LINE
  5
17F
102
{ACAD_REACTORS
330
262
330
263
102
}
330
71
100
AcDbEntity
  8
0
  6
Continuous
 62
     2
100
AcDbLine
 10
85.24076872237538
 20
338.5678642537621
 30
0.0
 11
85.24076872237538
 21
335.5140547299509
 31
0.0
  0
LINE
  5
180
102
{ACAD_REACTORS
330
262
330
263
102
}
330
71
100
AcDbEntity
  8
0
  6
Continuous
 62
     2
100
AcDbLine
 10
86.4812731326295
 20
337.1990307589798
 30
0.0
 11
86.7985681941714
 21
337.1990307589798
 31
0.0
  0
LINE
  5
181
102
{ACAD_REACTORS
330
262
330
263
102
}
330
71
100
AcDbEntity
  8
0
  6
Continuous
 62
     2
100
AcDbLine
 10
86.4812731326295
 20
337.904758408322
 30
0.0
 11
86.7985681941714
 21
337.904758408322
 31
0.0
  0
LINE
  5
182
102
{ACAD_REACTORS
330
270
330
271
102
}
330
71
100
AcDbEntity
  8
0
  6
Continuous
 62
     2
100
AcDbLine
 10
89.6302458663497
 20
337.4990309204275
 30
0.0
 11
90.67990344425718
 21
337.4990309204275
 31
0.0
  0
LINE
  5
183
102
{ACAD_REACTORS
330
270
330
271
102
}
330
71
100
AcDbEntity
  8
0
  6
Continuous
 62
     2
100
AcDbLine
 10
89.6302458663497
 20
338.5678642537621
 30
0.0
 11
89.6302458663497
 21
337.4990309204275
 31
0.0
  0
LINE
  5
184
102
{ACAD_REACTORS
330
270
330
271
102
}
330
71
100
AcDbEntity
  8
0
  6
Continuous
 62
     2
100
AcDbLine
 10
88.4374531641831
 20
338.5678642537621
 30
0.0
 11
89.6302458663497
 21
338.5678642537621
 31
0.0
  0
LINE
  5
185
102
{ACAD_REACTORS
330
270
330
271
102
}
330
71
100
AcDbEntity
  8
0
  6
Continuous
 62
     2
100
AcDbLine
 10
89.6302458663497
 20
335.5140547299509
 30
0.0
 11
88.4374531641831
 21
335.5140547299509
 31
0.0
  0
LINE
  5
186
102
{ACAD_REACTORS
330
270
330
271
102
}
330
71
100
AcDbEntity
  8
0
  6
Continuous
 62
     2
100
AcDbLine
 10
90.67990344425718
 20
335.5140547299509
 30
0.0
 11
90.67990344425718
 21
336.6483268387947
 31
0.0
  0
LINE
  5
187
102
{ACAD_REACTORS
330
270
330
271
102
}
330
71
100
AcDbEntity
  8
0
  6
Continuous
 62
     2
100
AcDbLine
 10
91.87269614642358
 20
335.5140547299509
 30
0.0
 11
90.67990344425718
 21
335.5140547299509
 31
0.0
  0
LINE
  5
188
102
{ACAD_REACTORS
330
270
330
271
102
}
330
71
100
AcDbEntity
  8
0
  6
Continuous
 62
     2
100
AcDbLine
 10
91.87269614642358
 20
338.5678642537621
 30
0.0
 11
91.87269614642358
 21
335.5140547299509
 31
0.0
  0
LINE
  5
189
102
{ACAD_REACTORS
330
25E
330
25F
102
}
330
71
100
AcDbEntity
  8
0
  6
Continuous
 62
     2
100
AcDbLine
 10
95.3556508367505
 20
336.6919526891351
 30
0.0
 11
96.69157866317818
 21
336.6919526891351
 31
0.0
  0
LINE
  5
18A
102
{ACAD_REACTORS
330
25E
330
25F
102
}
330
71
100
AcDbEntity
  8
0
  6
Continuous
 62
     2
100
AcDbLine
 10
96.69157866317818
 20
336.6919526891351
 30
0.0
 11
96.69157866317818
 21
337.3899662945773
 31
0.0
  0
LINE
  5
18B
102
{ACAD_REACTORS
330
25E
330
25F
102
}
330
71
100
AcDbEntity
  8
0
  6
Continuous
 62
     2
100
AcDbLine
 10
96.69157866317818
 20
337.3899662945773
 30
0.0
 11
95.3556508367505
 21
337.3899662945773
 31
0.0
  0
LINE
  5
18C
102
{ACAD_REACTORS
330
25E
330
25F
102
}
330
71
100
AcDbEntity
  8
0
  6
Continuous
 62
     2
100
AcDbLine
 10
95.3556508367505
 20
337.3899662945773
 30
0.0
 11
95.3556508367505
 21
337.8698506483191
 31
0.0
  0
LINE
  5
18D
102
{ACAD_REACTORS
330
26E
330
26F
102
}
330
71
100
AcDbEntity
  8
0
  6
Continuous
 62
     2
100
AcDbLine
 10
91.68169838319139
 20
332.1548642537766
 30
0.0
 11
92.87449108535898
 21
332.1548642537766
 31
0.0
  0
LINE
  5
18E
102
{ACAD_REACTORS
330
26E
330
26F
102
}
330
71
100
AcDbEntity
  8
0
  6
Continuous
 62
     2
100
AcDbLine
 10
94.11499549561188
 20
332.1548642537766
 30
0.0
 11
95.30778819777828
 21
332.1548642537766
 31
0.0
  0
LINE
  5
18F
102
{ACAD_REACTORS
330
26E
330
26F
102
}
330
71
100
AcDbEntity
  8
0
  6
Continuous
 62
     2
100
AcDbLine
 10
92.87449108535898
 20
335.2086737775877
 30
0.0
 11
91.68169838319139
 21
335.2086737775877
 31
0.0
  0
LINE
  5
190
102
{ACAD_REACTORS
330
26E
330
26F
102
}
330
71
100
AcDbEntity
  8
0
  6
Continuous
 62
     2
100
AcDbLine
 10
91.68169838319139
 20
335.2086737775877
 30
0.0
 11
91.68169838319139
 21
332.1548642537766
 31
0.0
  0
LINE
  5
191
102
{ACAD_REACTORS
330
26C
330
26D
102
}
330
71
100
AcDbEntity
  8
0
  6
Continuous
 62
     2
100
AcDbLine
 10
99.3634343160316
 20
338.5678642537621
 30
0.0
 11
99.3634343160316
 21
337.2590887435568
 31
0.0
  0
LINE
  5
192
102
{ACAD_REACTORS
330
26C
330
26D
102
}
330
71
100
AcDbEntity
  8
0
  6
Continuous
 62
     2
100
AcDbLine
 10
98.1229299057776
 20
338.5678642537621
 30
0.0
 11
96.93013720361108
 21
338.5678642537621
 31
0.0
  0
LINE
  5
193
102
{ACAD_REACTORS
330
26C
330
26D
102
}
330
71
100
AcDbEntity
  8
0
  6
Continuous
 62
     2
100
AcDbLine
 10
96.93013720361108
 20
338.5678642537621
 30
0.0
 11
96.93013720361108
 21
335.5140547299509
 31
0.0
  0
LINE
  5
194
102
{ACAD_REACTORS
330
26C
330
26D
102
}
330
71
100
AcDbEntity
  8
0
  6
Continuous
 62
     2
100
AcDbLine
 10
98.1229299057776
 20
335.5140547299509
 30
0.0
 11
98.1229299057776
 21
336.8228302401556
 31
0.0
  0
LINE
  5
195
102
{ACAD_REACTORS
330
26A
330
26B
102
}
330
71
100
AcDbEntity
  8
0
  6
Continuous
 62
     2
100
AcDbLine
 10
97.4548150616796
 20
332.1548642537766
 30
0.0
 11
97.4548150616796
 21
334.4234084714641
 31
0.0
  0
LINE
  5
196
102
{ACAD_REACTORS
330
26A
330
26B
102
}
330
71
100
AcDbEntity
  8
0
  6
Continuous
 62
     2
100
AcDbLine
 10
97.4548150616796
 20
334.4234084714641
 30
0.0
 11
98.2659140991521
 21
334.4234084714641
 31
0.0
  0
LINE
  5
197
102
{ACAD_REACTORS
330
26A
330
26B
102
}
330
71
100
AcDbEntity
  8
0
  6
Continuous
 62
     2
100
AcDbLine
 10
98.2659140991521
 20
334.4234084714641
 30
0.0
 11
98.2659140991521
 21
335.2086737775877
 31
0.0
  0
LINE
  5
198
102
{ACAD_REACTORS
330
26A
330
26B
102
}
330
71
100
AcDbEntity
  8
0
  6
Continuous
 62
     2
100
AcDbLine
 10
98.2659140991521
 20
335.2086737775877
 30
0.0
 11
95.45092332203848
 21
335.2086737775877
 31
0.0
  0
LINE
  5
199
102
{ACAD_REACTORS
330
26A
330
26B
102
}
330
71
100
AcDbEntity
  8
0
  6
Continuous
 62
     2
100
AcDbLine
 10
95.45092332203848
 20
334.4234084714641
 30
0.0
 11
96.26202235951308
 21
334.4234084714641
 31
0.0
  0
LINE
  5
19A
102
{ACAD_REACTORS
330
268
330
269
102
}
330
71
100
AcDbEntity
  8
0
  6
Continuous
 62
     2
100
AcDbLine
 10
99.06041992494949
 20
332.6958247979944
 30
0.0
 11
100.1928615016233
 21
332.6958247979944
 31
0.0
  0
LINE
  5
19B
102
{ACAD_REACTORS
330
268
330
269
102
}
330
71
100
AcDbEntity
  8
0
  6
Continuous
 62
     2
100
AcDbLine
 10
101.644845965353
 20
332.1548642537766
 30
0.0
 11
100.4043415550991
 21
332.1548642537766
 31
0.0
  0
LINE
  5
19C
102
{ACAD_REACTORS
330
268
330
269
102
}
330
71
100
AcDbEntity
  8
0
  6
Continuous
 62
     2
100
AcDbLine
 10
99.00638850816
 20
335.2086737775877
 30
0.0
 11
97.6084354612207
 21
332.1548642537766
 31
0.0
  0
LINE
  5
19D
102
{ACAD_REACTORS
330
268
330
269
102
}
330
71
100
AcDbEntity
  8
0
  6
Continuous
 62
     2
100
AcDbLine
 10
98.84893987147368
 20
332.1548642537766
 30
0.0
 11
99.06041992494949
 21
332.6958247979944
 31
0.0
  0
LINE
  5
19E
102
{ACAD_REACTORS
330
268
330
269
102
}
330
71
100
AcDbEntity
  8
0
  6
Continuous
 62
     2
100
AcDbLine
 10
99.32647547609449
 20
333.3763880633011
 30
0.0
 11
99.62664071328689
 21
334.1442030292877
 31
0.0
  0
LINE
  5
19F
102
{ACAD_REACTORS
330
266
330
267
102
}
330
71
100
AcDbEntity
  8
0
  6
Continuous
 62
     2
100
AcDbLine
 10
100.7947855586321
 20
335.5140547299509
 30
0.0
 11
100.7947855586321
 21
338.5678642537621
 31
0.0
  0
LINE
  5
1A0
102
{ACAD_REACTORS
330
266
330
267
102
}
330
71
100
AcDbEntity
  8
0
  6
Continuous
 62
     2
100
AcDbLine
 10
102.035289968885
 20
338.5678642537621
 30
0.0
 11
102.035289968885
 21
335.5140547299509
 31
0.0
  0
LINE
  5
1A1
102
{ACAD_REACTORS
330
266
330
267
102
}
330
71
100
AcDbEntity
  8
0
  6
Continuous
 62
     2
100
AcDbLine
 10
100.7947855586321
 20
338.5678642537621
 30
0.0
 11
102.035289968885
 21
338.5678642537621
 31
0.0
  0
LINE
  5
1A2
102
{ACAD_REACTORS
330
264
330
265
102
}
330
71
100
AcDbEntity
  8
0
  6
Continuous
 62
     2
100
AcDbLine
 10
104.2538843949158
 20
336.3017865152445
 30
0.0
 11
104.9504753329813
 21
335.5140547299509
 31
0.0
  0
LINE
  5
1A3
102
{ACAD_REACTORS
330
264
330
265
102
}
330
71
100
AcDbEntity
  8
0
  6
Continuous
 62
     2
100
AcDbLine
 10
104.9504753329813
 20
335.5140547299509
 30
0.0
 11
106.3531995507296
 21
335.5140547299509
 31
0.0
  0
LINE
  5
1A4
102
{ACAD_REACTORS
330
264
330
265
102
}
330
71
100
AcDbEntity
  8
0
  6
Continuous
 62
     2
100
AcDbLine
 10
104.9552465037893
 20
337.0949137237259
 30
0.0
 11
106.3531995507296
 21
335.5140547299509
 31
0.0
  0
LINE
  5
1A5
102
{ACAD_REACTORS
330
264
330
265
102
}
330
71
100
AcDbEntity
  8
0
  6
Continuous
 62
     2
100
AcDbLine
 10
104.9552465037893
 20
337.0949137237259
 30
0.0
 11
106.2577761345558
 21
338.5678642537621
 31
0.0
  0
LINE
  5
1A6
102
{ACAD_REACTORS
330
264
330
265
102
}
330
71
100
AcDbEntity
  8
0
  6
Continuous
 62
     2
100
AcDbLine
 10
104.2538843949158
 20
337.8880409322065
 30
0.0
 11
104.8550519168086
 21
338.5678642537621
 31
0.0
  0
LINE
  5
1A7
102
{ACAD_REACTORS
330
264
330
265
102
}
330
71
100
AcDbEntity
  8
0
  6
Continuous
 62
     2
100
AcDbLine
 10
103.652716873024
 20
338.5678642537621
 30
0.0
 11
104.2538843949158
 21
337.8880409322065
 31
0.0
  0
LINE
  5
1A8
102
{ACAD_REACTORS
330
264
330
265
102
}
330
71
100
AcDbEntity
  8
0
  6
Continuous
 62
     2
100
AcDbLine
 10
103.652716873024
 20
338.5678642537621
 30
0.0
 11
102.2499926552747
 21
338.5678642537621
 31
0.0
  0
LINE
  5
1A9
102
{ACAD_REACTORS
330
25A
330
25B
102
}
330
71
100
AcDbEntity
  8
0
  6
Continuous
 62
     2
100
AcDbLine
 10
104.3493078110885
 20
332.1548642537766
 30
0.0
 11
105.5421005132562
 21
332.1548642537766
 31
0.0
  0
LINE
  5
1AA
102
{ACAD_REACTORS
330
25A
330
25B
102
}
330
71
100
AcDbEntity
  8
0
  6
Continuous
 62
     2
100
AcDbLine
 10
105.5421005132562
 20
332.1548642537766
 30
0.0
 11
105.5421005132562
 21
334.4234084714641
 31
0.0
  0
LINE
  5
1AB
102
{ACAD_REACTORS
330
25A
330
25B
102
}
330
71
100
AcDbEntity
  8
0
  6
Continuous
 62
     2
100
AcDbLine
 10
105.5421005132562
 20
334.4234084714641
 30
0.0
 11
106.3531995507296
 21
334.4234084714641
 31
0.0
  0
LINE
  5
1AC
102
{ACAD_REACTORS
330
25A
330
25B
102
}
330
71
100
AcDbEntity
  8
0
  6
Continuous
 62
     2
100
AcDbLine
 10
106.3531995507296
 20
334.4234084714641
 30
0.0
 11
106.3531995507296
 21
335.2086737775877
 31
0.0
  0
LINE
  5
1AD
102
{ACAD_REACTORS
330
25A
330
25B
102
}
330
71
100
AcDbEntity
  8
0
  6
Continuous
 62
     2
100
AcDbLine
 10
102.9682540321009
 20
335.2086737775871
 30
0.0
 11
106.3531995507296
 21
335.2086737775877
 31
0.0
  0
LINE
  5
1AE
102
{ACAD_REACTORS
330
25A
330
25B
102
}
330
71
100
AcDbEntity
  8
0
  6
Continuous
 62
     2
100
AcDbLine
 10
104.3493078110885
 20
334.4234084714641
 30
0.0
 11
104.3493078110885
 21
332.1548642537766
 31
0.0
  0
LINE
  5
1AF
102
{ACAD_REACTORS
330
25C
330
25D
102
}
330
71
100
AcDbEntity
  8
0
  6
Continuous
 62
     2
100
AcDbLine
 10
81.71982137560929
 20
334.1337444033411
 30
0.0
 11
81.71982137560929
 21
334.7155958100361
 31
0.0
  0
LINE
  5
1B0
102
{ACAD_REACTORS
330
25C
330
25D
102
}
330
71
100
AcDbEntity
  8
0
  6
Continuous
 62
     2
100
AcDbLine
 10
81.71982137560929
 20
336.9338790099724
 30
0.0
 11
81.71982137560929
 21
337.5394142984792
 31
0.0
  0
LINE
  5
1B1
330
71
100
AcDbEntity
  8
1
  6
Continuous
 62
     6
100
AcDbLine
 10
60.24999996021251
 20
324.8613642537603
 30
0.0
 11
74.20519543346248
 21
324.8613642537601
 31
0.0
  0
LINE
  5
1B2
330
71
100
AcDbEntity
  8
1
  6
Continuous
 62
     6
100
AcDbLine
 10
10.24999996021228
 20
324.8613642537603
 30
0.0
 11
5.20519543346251
 21
324.8613642537603
 31
0.0
  0
LINE
  5
1B3
330
71
100
AcDbEntity
  8
1
  6
Continuous
 62
     6
100
AcDbLine
 10
160.2499999602125
 20
324.8613642537603
 30
0.0
 11
203.7499999602125
 21
324.8613642537603
 31
0.0
  0
LINE
  5
1B4
330
71
100
AcDbEntity
  8
1
  6
Continuous
 62
     6
100
AcDbLine
 10
110.2499999602125
 20
324.8613642537603
 30
0.0
 11
92.4051954334625
 21
324.8613642537603
 31
0.0
  0
LINE
  5
1B5
330
71
100
AcDbEntity
  8
1
  6
Continuous
 62
     2
100
AcDbLine
 10
203.7499999602125
 20
324.8613642537603
 30
0.0
 11
208.7499999602115
 21
324.8613642537603
 31
0.0
  0
LINE
  5
1B6
330
71
100
AcDbEntity
  8
1
  6
Continuous
 62
     2
100
AcDbLine
 10
203.7499999602125
 20
324.8613642537603
 30
0.0
 11
203.7499999602125
 21
319.8613642537601
 31
0.0
  0
LINE
  5
1B7
330
71
100
AcDbEntity
  8
1
  6
Continuous
 62
     6
100
AcDbLine
 10
74.20519543346248
 20
341.8613642537603
 30
0.0
 11
110.6051954334624
 21
341.8613642537603
 31
0.0
  0
LINE
  5
1B8
330
71
100
AcDbEntity
  8
1
  6
Continuous
 62
     2
100
AcDbLine
 10
208.7499999602115
 20
319.8613642537601
 30
0.0
 11
208.7499999602115
 21
324.8613642537603
 31
0.0
  0
LINE
  5
1B9
330
71
100
AcDbEntity
  8
1
  6
Continuous
 62
     2
100
AcDbLine
 10
208.7499999602115
 20
319.8613642537601
 30
0.0
 11
203.7499999602125
 21
319.8613642537601
 31
0.0
  0
LINE
  5
1BA
330
71
100
AcDbEntity
  8
1
  6
Continuous
 62
     2
100
AcDbLine
 10
203.7499999602125
 20
319.8613642537601
 30
0.0
 11
160.2499999602125
 21
319.8613642537601
 31
0.0
  0
LINE
  5
1BB
330
71
100
AcDbEntity
  8
1
  6
Continuous
 62
     6
100
AcDbLine
 10
203.7499999602142
 20
341.8613642537603
 30
0.0
 11
203.7499999602134
 21
374.8613642537604
 31
0.0
  0
LINE
  5
1BC
330
71
100
AcDbEntity
  8
1
  6
Continuous
 62
     2
100
AcDbLine
 10
208.7499999602115
 20
529.8613642537603
 30
0.0
 11
60.24999996021251
 21
529.8613642537603
 31
0.0
  0
LINE
  5
1BD
330
71
100
AcDbEntity
  8
1
  6
Continuous
 62
     6
100
AcDbLine
 10
203.7499999602115
 20
509.8613642537603
 30
0.0
 11
-83.25000003978658
 21
509.8613642537603
 31
0.0
  0
LINE
  5
1BE
330
71
100
AcDbEntity
  8
1
  6
Continuous
 62
     2
100
AcDbLine
 10
203.7499999602134
 20
374.8613642537604
 30
0.0
 11
208.7499999602115
 21
374.8613642537604
 31
0.0
  0
LINE
  5
1BF
330
71
100
AcDbEntity
  8
1
  6
Continuous
 62
     6
100
AcDbLine
 10
203.7499999602134
 20
374.8613642537604
 30
0.0
 11
203.7499999602129
 21
424.8613642537601
 31
0.0
  0
LINE
  5
1C0
330
71
100
AcDbEntity
  8
1
  6
Continuous
 62
     2
100
AcDbLine
 10
208.7499999602115
 20
374.8613642537604
 30
0.0
 11
208.7499999602115
 21
424.8613642537601
 31
0.0
  0
LINE
  5
1C1
330
71
100
AcDbEntity
  8
1
  6
Continuous
 62
     2
100
AcDbLine
 10
203.7499999602129
 20
424.8613642537601
 30
0.0
 11
208.7499999602115
 21
424.8613642537601
 31
0.0
  0
LINE
  5
1C2
330
71
100
AcDbEntity
  8
1
  6
Continuous
 62
     6
100
AcDbLine
 10
203.7499999602129
 20
424.8613642537601
 30
0.0
 11
203.7499999602117
 21
474.8613642537603
 31
0.0
  0
LINE
  5
1C3
330
71
100
AcDbEntity
  8
1
  6
Continuous
 62
     2
100
AcDbLine
 10
208.7499999602115
 20
424.8613642537601
 30
0.0
 11
208.7499999602115
 21
474.8613642537603
 31
0.0
  0
LINE
  5
1C4
330
71
100
AcDbEntity
  8
1
  6
Continuous
 62
     2
100
AcDbLine
 10
203.7499999602117
 20
474.8613642537603
 30
0.0
 11
208.7499999602115
 21
474.8613642537603
 31
0.0
  0
LINE
  5
1C5
330
71
100
AcDbEntity
  8
1
  6
Continuous
 62
     6
100
AcDbLine
 10
203.7499999602117
 20
474.8613642537603
 30
0.0
 11
203.7499999602115
 21
509.8613642537603
 31
0.0
  0
LINE
  5
1C6
330
71
100
AcDbEntity
  8
1
  6
Continuous
 62
     2
100
AcDbLine
 10
208.7499999602115
 20
474.8613642537603
 30
0.0
 11
208.7499999602115
 21
529.8613642537603
 31
0.0
  0
LINE
  5
1C7
330
71
100
AcDbEntity
  8
1
  6
Continuous
 62
     2
100
AcDbLine
 10
208.7499999602115
 20
324.8613642537603
 30
0.0
 11
208.7499999602115
 21
374.8613642537604
 31
0.0
  0
LINE
  5
1C8
330
71
100
AcDbEntity
  8
1
  6
Continuous
 62
     2
100
AcDbLine
 10
60.24999996021251
 20
529.8613642537603
 30
0.0
 11
-88.25000003978658
 21
529.8613642537603
 31
0.0
  0
LINE
  5
1C9
330
71
100
AcDbEntity
  8
1
  6
Continuous
 62
     2
100
AcDbLine
 10
60.24999996021251
 20
529.8613642537603
 30
0.0
 11
60.24999996021251
 21
520.6526724090589
 31
0.0
  0
LINE
  5
1CA
330
71
100
AcDbEntity
  8
1
  6
Continuous
 62
     2
100
AcDbLine
 10
-88.25000003978658
 20
319.8613642537601
 30
0.0
 11
-83.25000003978562
 21
319.8613642537601
 31
0.0
  0
LINE
  5
1CB
330
71
100
AcDbEntity
  8
1
  6
Continuous
 62
     2
100
AcDbLine
 10
-88.25000003978658
 20
529.8613642537603
 30
0.0
 11
-88.25000003978658
 21
474.8613642537603
 31
0.0
  0
LINE
  5
1CC
330
71
100
AcDbEntity
  8
1
  6
Continuous
 62
     6
100
AcDbLine
 10
-83.25000003978658
 20
509.8613642537603
 30
0.0
 11
-83.25000003978653
 21
474.8613642537603
 31
0.0
  0
LINE
  5
1CD
330
71
100
AcDbEntity
  8
1
  6
Continuous
 62
     2
100
AcDbLine
 10
-88.25000003978658
 20
474.8613642537603
 30
0.0
 11
-83.25000003978653
 21
474.8613642537603
 31
0.0
  0
LINE
  5
1CE
330
71
100
AcDbEntity
  8
1
  6
Continuous
 62
     2
100
AcDbLine
 10
-88.25000003978658
 20
474.8613642537603
 30
0.0
 11
-88.25000003978658
 21
424.8613642537601
 31
0.0
  0
LINE
  5
1CF
330
71
100
AcDbEntity
  8
1
  6
Continuous
 62
     6
100
AcDbLine
 10
-83.25000003978653
 20
474.8613642537603
 30
0.0
 11
-83.25000003978602
 21
424.8613642537601
 31
0.0
  0
LINE
  5
1D0
330
71
100
AcDbEntity
  8
1
  6
Continuous
 62
     2
100
AcDbLine
 10
-88.25000003978658
 20
424.8613642537601
 30
0.0
 11
-83.25000003978602
 21
424.8613642537601
 31
0.0
  0
LINE
  5
1D1
330
71
100
AcDbEntity
  8
1
  6
Continuous
 62
     2
100
AcDbLine
 10
-88.25000003978658
 20
424.8613642537601
 30
0.0
 11
-88.25000003978658
 21
374.8613642537604
 31
0.0
  0
LINE
  5
1D2
330
71
100
AcDbEntity
  8
1
  6
Continuous
 62
     6
100
AcDbLine
 10
-83.25000003978602
 20
424.8613642537601
 30
0.0
 11
-83.25000003978579
 21
374.8613642537604
 31
0.0
  0
LINE
  5
1D3
330
71
100
AcDbEntity
  8
1
  6
Continuous
 62
     2
100
AcDbLine
 10
-88.25000003978658
 20
374.8613642537604
 30
0.0
 11
-83.25000003978579
 21
374.8613642537604
 31
0.0
  0
LINE
  5
1D4
330
71
100
AcDbEntity
  8
1
  6
Continuous
 62
     2
100
AcDbLine
 10
-88.25000003978658
 20
374.8613642537604
 30
0.0
 11
-88.25000003978658
 21
324.8613642537603
 31
0.0
  0
LINE
  5
1D5
330
71
100
AcDbEntity
  8
1
  6
Continuous
 62
     6
100
AcDbLine
 10
-83.25000003978579
 20
374.8613642537604
 30
0.0
 11
-83.25000003978562
 21
324.8613642537603
 31
0.0
  0
LINE
  5
1D6
330
71
100
AcDbEntity
  8
1
  6
Continuous
 62
     2
100
AcDbLine
 10
-39.75000003978749
 20
319.8613642537601
 30
0.0
 11
-39.75000003978749
 21
324.8613642537603
 31
0.0
  0
LINE
  5
1D7
330
71
100
AcDbEntity
  8
1
  6
Continuous
 62
     2
100
AcDbLine
 10
-39.75000003978749
 20
319.8613642537601
 30
0.0
 11
10.24999996021228
 21
319.8613642537601
 31
0.0
  0
LINE
  5
1D8
330
71
100
AcDbEntity
  8
1
  6
Continuous
 62
     2
100
AcDbLine
 10
10.24999996021228
 20
319.8613642537601
 30
0.0
 11
10.24999996021228
 21
324.8613642537603
 31
0.0
  0
LINE
  5
1D9
330
71
100
AcDbEntity
  8
1
  6
Continuous
 62
     2
100
AcDbLine
 10
10.24999996021228
 20
319.8613642537601
 30
0.0
 11
60.24999996021251
 21
319.8613642537601
 31
0.0
  0
LINE
  5
1DA
330
71
100
AcDbEntity
  8
1
  6
Continuous
 62
     2
100
AcDbLine
 10
60.24999996021251
 20
319.8613642537601
 30
0.0
 11
60.24999996021251
 21
324.8613642537603
 31
0.0
  0
LINE
  5
1DB
330
71
100
AcDbEntity
  8
1
  6
Continuous
 62
     2
100
AcDbLine
 10
60.24999996021251
 20
319.8613642537601
 30
0.0
 11
110.2499999602125
 21
319.8613642537601
 31
0.0
  0
LINE
  5
1DC
330
71
100
AcDbEntity
  8
1
  6
Continuous
 62
     2
100
AcDbLine
 10
110.2499999602125
 20
319.8613642537601
 30
0.0
 11
110.2499999602125
 21
324.8613642537603
 31
0.0
  0
LINE
  5
1DD
330
71
100
AcDbEntity
  8
1
  6
Continuous
 62
     2
100
AcDbLine
 10
160.2499999602125
 20
319.8613642537601
 30
0.0
 11
160.2499999602125
 21
324.8613642537603
 31
0.0
  0
LINE
  5
1DE
330
71
100
AcDbEntity
  8
1
  6
Continuous
 62
     2
100
AcDbLine
 10
160.2499999602125
 20
319.8613642537601
 30
0.0
 11
110.2499999602125
 21
319.8613642537601
 31
0.0
  0
LINE
  5
1DF
330
71
100
AcDbEntity
  8
1
  6
Continuous
 62
     2
100
AcDbLine
 10
-83.25000003978562
 20
324.8613642537603
 30
0.0
 11
-83.25000003978562
 21
319.8613642537601
 31
0.0
  0
LINE
  5
1E0
330
71
100
AcDbEntity
  8
1
  6
Continuous
 62
     2
100
AcDbLine
 10
-83.25000003978562
 20
319.8613642537601
 30
0.0
 11
-39.75000003978749
 21
319.8613642537601
 31
0.0
  0
LINE
  5
1E1
330
71
100
AcDbEntity
  8
1
  6
Continuous
 62
     2
100
AcDbLine
 10
-83.25000003978562
 20
324.8613642537603
 30
0.0
 11
-88.25000003978658
 21
324.8613642537603
 31
0.0
  0
LINE
  5
1E2
330
71
100
AcDbEntity
  8
1
  6
Continuous
 62
     2
100
AcDbLine
 10
-88.25000003978658
 20
324.8613642537603
 30
0.0
 11
-88.25000003978658
 21
319.8613642537601
 31
0.0
  0
LINE
  5
1E3
330
71
100
AcDbEntity
  8
1
  6
Continuous
 62
     6
100
AcDbLine
 10
203.7499999602125
 20
324.8613642537603
 30
0.0
 11
203.7499999602138
 21
333.3613642537603
 31
0.0
  0
LINE
  5
1E4
330
71
100
AcDbEntity
  8
1
  6
Continuous
 62
     6
100
AcDbLine
 10
110.6051954334624
 20
324.8613642537601
 30
0.0
 11
160.2499999602125
 21
324.8613642537603
 31
0.0
  0
LINE
  5
1E5
330
71
100
AcDbEntity
  8
1
  6
Continuous
 62
     6
100
AcDbLine
 10
-42.05000003978773
 20
324.8613642537601
 30
0.0
 11
-39.75000003978749
 21
324.8613642537603
 31
0.0
  0
LINE
  5
1E6
330
71
100
AcDbEntity
  8
1
  6
Continuous
 62
     6
100
AcDbLine
 10
60.24999996021251
 20
324.8613642537603
 30
0.0
 11
10.24999996021228
 21
324.8613642537603
 31
0.0
  0
LINE
  5
1E7
330
71
100
AcDbEntity
  8
1
  6
Continuous
 62
     7
100
AcDbLine
 10
74.20519543346248
 20
341.8613642537603
 30
0.0
 11
74.20519543346248
 21
329.1113642537601
 31
0.0
  0
LINE
  5
1E8
330
71
100
AcDbEntity
  8
1
  6
Continuous
 62
     7
100
AcDbLine
 10
110.6051954334624
 20
341.8613642537603
 30
0.0
 11
110.6051954334624
 21
329.1113642537603
 31
0.0
  0
LINE
  5
1E9
330
71
100
AcDbEntity
  8
1
  6
Continuous
 62
     6
100
AcDbLine
 10
-42.05000003978773
 20
324.8613642537601
 30
0.0
 11
-48.25000003978573
 21
324.8613642537603
 31
0.0
  0
LINE
  5
1EA
330
71
100
AcDbEntity
  8
1
  6
Continuous
 62
     6
100
AcDbLine
 10
110.6051954334624
 20
324.8613642537601
 30
0.0
 11
110.2499999602125
 21
324.8613642537603
 31
0.0
  0
LINE
  5
1EB
330
71
100
AcDbEntity
  8
1
  6
Continuous
 62
     6
100
AcDbLine
 10
203.7499999602142
 20
341.8613642537603
 30
0.0
 11
203.7499999602138
 21
333.3613642537603
 31
0.0
  0
LINE
  5
1EC
330
71
100
AcDbEntity
  8
1
  6
Continuous
 62
     6
100
AcDbLine
 10
-48.25000003978573
 20
324.8613642537603
 30
0.0
 11
-83.25000003978562
 21
324.8613642537603
 31
0.0
  0
LINE
  5
1ED
330
71
100
AcDbEntity
  8
1
  6
Continuous
 62
     2
100
AcDbLine
 10
78.44185032002508
 20
347.2363642537601
 30
0.0
 11
83.44185032002508
 21
348.4863642537601
 31
0.0
  0
LINE
  5
1EE
330
71
100
AcDbEntity
  8
1
  6
Continuous
 62
     2
100
AcDbLine
 10
78.44185032002508
 20
344.7363642537601
 30
0.0
 11
78.44185032002508
 21
347.2363642537601
 31
0.0
  0
LINE
  5
1EF
330
71
100
AcDbEntity
  8
1
  6
Continuous
 62
     2
100
AcDbLine
 10
83.44185032002508
 20
343.4863642537601
 30
0.0
 11
78.44185032002508
 21
344.7363642537601
 31
0.0
  0
LINE
  5
1F0
330
71
100
AcDbEntity
  8
1
  6
Continuous
 62
     2
100
AcDbLine
 10
83.44185032002508
 20
348.4863642537601
 30
0.0
 11
83.44185032002508
 21
343.4863642537601
 31
0.0
  0
LINE
  5
1F1
330
71
100
AcDbEntity
  8
1
  6
Continuous
 62
     7
100
AcDbLine
 10
74.20519543346248
 20
329.1113642537601
 30
0.0
 11
92.4051954334625
 21
329.1113642537603
 31
0.0
  0
LINE
  5
1F2
330
71
100
AcDbEntity
  8
1
  6
Continuous
 62
     7
100
AcDbLine
 10
74.20519543346248
 20
329.1113642537601
 30
0.0
 11
74.20519543346248
 21
324.8613642537601
 31
0.0
  0
LINE
  5
1F3
330
71
100
AcDbEntity
  8
1
  6
Continuous
 62
     7
100
AcDbLine
 10
110.6051954334624
 20
329.1113642537603
 30
0.0
 11
110.6051954334624
 21
324.8613642537601
 31
0.0
  0
LINE
  5
1F4
330
71
100
AcDbEntity
  8
1
  6
Continuous
 62
     7
100
AcDbLine
 10
92.4051954334625
 20
329.1113642537603
 30
0.0
 11
92.4051954334625
 21
324.8613642537603
 31
0.0
  0
LINE
  5
1F5
330
71
100
AcDbEntity
  8
1
  6
Continuous
 62
     6
100
AcDbLine
 10
92.4051954334625
 20
324.8613642537603
 30
0.0
 11
74.20519543346248
 21
324.8613642537601
 31
0.0
  0
LINE
  5
1F6
330
71
100
AcDbEntity
  8
1
  6
Continuous
 62
     7
100
AcDbLine
 10
92.4051954334625
 20
329.1113642537603
 30
0.0
 11
110.6051954334624
 21
329.1113642537603
 31
0.0
  0
LINE
  5
1F7
330
71
100
AcDbEntity
  8
1
  6
Continuous
 62
     6
100
AcDbLine
 10
74.20519543346248
 20
350.3613642537603
 30
0.0
 11
203.7499999602142
 21
350.3613642537603
 31
0.0
  0
ARC
  5
1F8
102
{ACAD_REACTORS
330
260
330
261
102
}
330
71
100
AcDbEntity
  8
0
  6
Continuous
 62
     2
100
AcDbCircle
 10
89.59684343242247
 20
333.6817690156819
 30
0.0
 40
0.7717997786797649
100
AcDbArc
 50
321.8795802028351
 51
38.12041979715494
  0
ARC
  5
1F9
102
{ACAD_REACTORS
330
260
330
261
102
}
330
71
100
AcDbEntity
  8
0
  6
Continuous
 62
     2
100
AcDbCircle
 10
89.79658346876889
 20
333.5250378375619
 30
0.0
 40
0.5179085730138231
100
AcDbArc
 50
218.1204197972055
 51
321.8795802027886
  0
ARC
  5
1FA
102
{ACAD_REACTORS
330
260
330
261
102
}
330
71
100
AcDbEntity
  8
0
  6
Continuous
 62
     2
100
AcDbCircle
 10
89.99632350511499
 20
333.6817690156819
 30
0.0
 40
0.7717997786794808
100
AcDbArc
 50
141.8795802028346
 51
218.1204197971753
  0
ARC
  5
1FB
102
{ACAD_REACTORS
330
260
330
261
102
}
330
71
100
AcDbEntity
  8
0
  6
Continuous
 62
     2
100
AcDbCircle
 10
89.79658346876889
 20
333.8385001938024
 30
0.0
 40
0.5179085730132998
100
AcDbArc
 50
38.12041979714704
 51
141.8795802028588
  0
ARC
  5
1FC
102
{ACAD_REACTORS
330
258
330
259
102
}
330
71
100
AcDbEntity
  8
0
  6
Continuous
 62
     2
100
AcDbCircle
 10
86.734569333205
 20
332.2713026502737
 30
0.0
 40
2.227384008973501
100
AcDbArc
 50
58.06909105004111
 51
71.55192388186745
  0
ARC
  5
1FD
102
{ACAD_REACTORS
330
258
330
259
102
}
330
71
100
AcDbEntity
  8
0
  6
Continuous
 62
     2
100
AcDbCircle
 10
86.99629703416377
 20
333.8868404450209
 30
0.0
 40
0.511580060194904
100
AcDbArc
 50
113.3722778881979
 51
151.4785267423044
  0
ARC
  5
1FE
102
{ACAD_REACTORS
330
258
330
259
102
}
330
71
100
AcDbEntity
  8
0
  6
Continuous
 62
     2
100
AcDbCircle
 10
87.37365429224408
 20
333.6817690156819
 30
0.0
 40
0.9410597353332545
100
AcDbArc
 50
151.4785267422669
 51
208.5214732577118
  0
ARC
  5
1FF
102
{ACAD_REACTORS
330
258
330
259
102
}
330
71
100
AcDbEntity
  8
0
  6
Continuous
 62
     2
100
AcDbCircle
 10
86.57669645811208
 20
336.9944499609383
 30
0.0
 40
4.852596863498279
100
AcDbArc
 50
275.1581447696248
 51
285.9799912583529
  0
ARC
  5
200
102
{ACAD_REACTORS
330
258
330
259
102
}
330
71
100
AcDbEntity
  8
0
  6
Continuous
 62
     2
100
AcDbCircle
 10
86.86555255284799
 20
333.7945593777167
 30
0.0
 40
1.639695123939395
100
AcDbArc
 50
195.0618917770906
 51
275.1581447696391
  0
ARC
  5
201
102
{ACAD_REACTORS
330
258
330
259
102
}
330
71
100
AcDbEntity
  8
0
  6
Continuous
 62
     2
100
AcDbCircle
 10
86.44642470938518
 20
333.6817690156819
 30
0.0
 40
1.205656168390944
100
AcDbArc
 50
164.9381082228765
 51
195.0618917770948
  0
ARC
  5
202
102
{ACAD_REACTORS
330
258
330
259
102
}
330
71
100
AcDbEntity
  8
0
  6
Continuous
 62
     2
100
AcDbCircle
 10
86.86555255284799
 20
333.5689786536469
 30
0.0
 40
1.639695123940563
100
AcDbArc
 50
84.84185523036254
 51
164.9381082228846
  0
ARC
  5
203
102
{ACAD_REACTORS
330
25C
330
25D
102
}
330
71
100
AcDbEntity
  8
0
  6
Continuous
 62
     2
100
AcDbCircle
 10
82.03553829868608
 20
334.7155958100361
 30
0.0
 40
0.3157169230765842
100
AcDbArc
 50
115.3740086783474
 51
180.0
  0
ARC
  5
204
102
{ACAD_REACTORS
330
25C
330
25D
102
}
330
71
100
AcDbEntity
  8
0
  6
Continuous
 62
     2
100
AcDbCircle
 10
82.03553829868608
 20
336.9338790099724
 30
0.0
 40
0.315716923076792
100
AcDbArc
 50
180.0
 51
244.6259913216437
  0
ARC
  5
205
102
{ACAD_REACTORS
330
25C
330
25D
102
}
330
71
100
AcDbEntity
  8
0
  6
Continuous
 62
     2
100
AcDbCircle
 10
82.0411544339961
 20
335.83657935091
 30
0.0
 40
2.018561131933209
100
AcDbArc
 50
269.8110329575858
 51
90.18896704241416
  0
ARC
  5
206
102
{ACAD_REACTORS
330
25C
330
25D
102
}
330
71
100
AcDbEntity
  8
0
  6
Continuous
 62
     2
100
AcDbCircle
 10
82.03553829868608
 20
334.1337444033411
 30
0.0
 40
0.315716923076792
100
AcDbArc
 50
180.0
 51
269.8110329574542
  0
ARC
  5
207
102
{ACAD_REACTORS
330
25A
330
25B
102
}
330
71
100
AcDbEntity
  8
0
  6
Continuous
 62
     2
100
AcDbCircle
 10
103.0989985134167
 20
333.8868404450209
 30
0.0
 40
0.5115800601944143
100
AcDbArc
 50
109.3371432194853
 51
151.4785267424197
  0
ARC
  5
208
102
{ACAD_REACTORS
330
25A
330
25B
102
}
330
71
100
AcDbEntity
  8
0
  6
Continuous
 62
     2
100
AcDbCircle
 10
103.0989985134167
 20
333.4766975863433
 30
0.0
 40
0.5115800601959674
100
AcDbArc
 50
208.5214732576754
 51
246.6277221118399
  0
ARC
  5
209
102
{ACAD_REACTORS
330
25A
330
25B
102
}
330
71
100
AcDbEntity
  8
0
  6
Continuous
 62
     2
100
AcDbCircle
 10
102.5491261886393
 20
333.6817690156819
 30
0.0
 40
1.205656168392989
100
AcDbArc
 50
164.9381082229026
 51
195.0618917770948
  0
ARC
  5
20A
102
{ACAD_REACTORS
330
25A
330
25B
102
}
330
71
100
AcDbEntity
  8
0
  6
Continuous
 62
     2
100
AcDbCircle
 10
102.9682540321009
 20
333.5689786536469
 30
0.0
 40
1.639695123940157
100
AcDbArc
 50
90.0
 51
164.9381082228928
  0
ARC
  5
20B
102
{ACAD_REACTORS
330
25E
330
25F
102
}
330
71
100
AcDbEntity
  8
0
  6
Continuous
 62
     2
100
AcDbCircle
 10
93.54125893939718
 20
337.0409594918561
 30
0.0
 40
1.526904761905996
100
AcDbArc
 50
90.0
 51
270.0
  0
ARC
  5
20C
102
{ACAD_REACTORS
330
262
330
263
102
}
330
71
100
AcDbEntity
  8
0
  6
Continuous
 62
     2
100
AcDbCircle
 10
86.7985681941714
 20
337.5518945836509
 30
0.0
 40
0.3528638246710898
100
AcDbArc
 50
270.0
 51
90.0
  0
ARC
  5
20D
102
{ACAD_REACTORS
330
25C
330
25D
102
}
330
71
100
AcDbEntity
  8
0
  6
Continuous
 62
     2
100
AcDbCircle
 10
79.45998961215437
 20
337.5395917751273
 30
0.0
 40
0.3157169230760815
100
AcDbArc
 50
90.0
 51
180.0
  0
ARC
  5
20E
102
{ACAD_REACTORS
330
25C
330
25D
102
}
330
71
100
AcDbEntity
  8
0
  6
Continuous
 62
     2
100
AcDbCircle
 10
81.45840732073898
 20
335.8247374100046
 30
0.0
 40
0.911897523557486
100
AcDbArc
 50
115.194410648532
 51
244.8055893514878
  0
ARC
  5
20F
102
{ACAD_REACTORS
330
25C
330
25D
102
}
330
71
100
AcDbEntity
  8
0
  6
Continuous
 62
     2
100
AcDbCircle
 10
80.935822873164
 20
334.7139076639418
 30
0.0
 40
0.315716923076593
100
AcDbArc
 50
0.0
 51
64.80558935146027
  0
ARC
  5
210
102
{ACAD_REACTORS
330
25C
330
25D
102
}
330
71
100
AcDbEntity
  8
0
  6
Continuous
 62
     2
100
AcDbCircle
 10
78.86609493540789
 20
332.5791088691599
 30
0.0
 40
0.4242446153828041
100
AcDbArc
 50
180.0
 51
270.0
  0
ARC
  5
211
102
{ACAD_REACTORS
330
25E
330
25F
102
}
330
71
100
AcDbEntity
  8
0
  6
Continuous
 62
     2
100
AcDbCircle
 10
93.75753094956238
 20
337.1976906699766
 30
0.0
 40
0.5179085730135616
100
AcDbArc
 50
38.12041979714829
 51
141.879580202844
  0
ARC
  5
212
102
{ACAD_REACTORS
330
25E
330
25F
102
}
330
71
100
AcDbEntity
  8
0
  6
Continuous
 62
     2
100
AcDbCircle
 10
93.95727098590868
 20
337.0409594918561
 30
0.0
 40
0.7717997786797426
100
AcDbArc
 50
141.8795802028338
 51
218.1204197971529
  0
ARC
  5
213
102
{ACAD_REACTORS
330
260
330
261
102
}
330
71
100
AcDbEntity
  8
0
  6
Continuous
 62
     2
100
AcDbCircle
 10
89.79658346876889
 20
334.2203440259851
 30
0.0
 40
2.065479772208433
100
AcDbArc
 50
242.4518518243391
 51
297.5481481756882
  0
ARC
  5
214
102
{ACAD_REACTORS
330
260
330
261
102
}
330
71
100
AcDbEntity
  8
0
  6
Continuous
 62
     2
100
AcDbCircle
 10
89.79658346876889
 20
333.1431940053791
 30
0.0
 40
2.065479772208593
100
AcDbArc
 50
62.45185182430674
 51
117.548148175666
  0
ARC
  5
215
102
{ACAD_REACTORS
330
260
330
261
102
}
330
71
100
AcDbEntity
  8
0
  6
Continuous
 62
     2
100
AcDbCircle
 10
89.51564357693559
 20
333.6817690156819
 30
0.0
 40
1.458034083651515
100
AcDbArc
 50
117.5481481756619
 51
242.451851824337
  0
ARC
  5
216
102
{ACAD_REACTORS
330
260
330
261
102
}
330
71
100
AcDbEntity
  8
0
  6
Continuous
 62
     2
100
AcDbCircle
 10
90.07752336060219
 20
333.6817690156819
 30
0.0
 40
1.458034083651977
100
AcDbArc
 50
297.5481481757016
 51
62.45185182429947
  0
ARC
  5
217
102
{ACAD_REACTORS
330
25E
330
25F
102
}
330
71
100
AcDbEntity
  8
0
  6
Continuous
 62
     2
100
AcDbCircle
 10
93.75753094956238
 20
336.8842283137358
 30
0.0
 40
0.5179085730134722
100
AcDbArc
 50
218.120419797156
 51
321.8795802028517
  0
ARC
  5
218
102
{ACAD_REACTORS
330
25E
330
25F
102
}
330
71
100
AcDbEntity
  8
0
  6
Continuous
 62
     2
100
AcDbCircle
 10
93.5577909132162
 20
337.0409594918561
 30
0.0
 40
0.7717997786796023
100
AcDbArc
 50
321.8795802028471
 51
38.12041979716621
  0
ARC
  5
219
102
{ACAD_REACTORS
330
25C
330
25D
102
}
330
71
100
AcDbEntity
  8
0
  6
Continuous
 62
     2
100
AcDbCircle
 10
84.33940702612469
 20
332.5791088691599
 30
0.0
 40
0.4242446153832589
100
AcDbArc
 50
270.0
 51
0.0
  0
ARC
  5
21A
102
{ACAD_REACTORS
330
25C
330
25D
102
}
330
71
100
AcDbEntity
  8
0
  6
Continuous
 62
     2
100
AcDbCircle
 10
84.33940702612469
 20
338.1436196383601
 30
0.0
 40
0.4242446153838841
100
AcDbArc
 50
0.0
 51
90.0
  0
ARC
  5
21B
102
{ACAD_REACTORS
330
25C
330
25D
102
}
330
71
100
AcDbEntity
  8
0
  6
Continuous
 62
     2
100
AcDbCircle
 10
78.86609493540789
 20
338.1436196383601
 30
0.0
 40
0.4242446153837705
100
AcDbArc
 50
90.0
 51
180.0
  0
ARC
  5
21C
102
{ACAD_REACTORS
330
25C
330
25D
102
}
330
71
100
AcDbEntity
  8
0
  6
Continuous
 62
     2
100
AcDbCircle
 10
80.935822873164
 20
333.1831367324102
 30
0.0
 40
0.3157169230767067
100
AcDbArc
 50
270.0
 51
0.0
  0
ARC
  5
21D
102
{ACAD_REACTORS
330
25C
330
25D
102
}
330
71
100
AcDbEntity
  8
0
  6
Continuous
 62
     2
100
AcDbCircle
 10
80.935822873164
 20
336.9355671560668
 30
0.0
 40
0.3157169230762231
100
AcDbArc
 50
295.1944106485309
 51
0.0
  0
ARC
  5
21E
102
{ACAD_REACTORS
330
25C
330
25D
102
}
330
71
100
AcDbEntity
  8
0
  6
Continuous
 62
     2
100
AcDbCircle
 10
80.935822873164
 20
337.5395917751273
 30
0.0
 40
0.315716923076593
100
AcDbArc
 50
0.0
 51
90.0
  0
ARC
  5
21F
102
{ACAD_REACTORS
330
25C
330
25D
102
}
330
71
100
AcDbEntity
  8
0
  6
Continuous
 62
     2
100
AcDbCircle
 10
79.45998961215437
 20
333.1831367324102
 30
0.0
 40
0.3157169230756836
100
AcDbArc
 50
180.0
 51
270.0
  0
ARC
  5
220
102
{ACAD_REACTORS
330
262
330
263
102
}
330
71
100
AcDbEntity
  8
0
  6
Continuous
 62
     2
100
AcDbCircle
 10
87.24004072040978
 20
337.5124986124284
 30
0.0
 40
1.055365641333651
100
AcDbArc
 50
270.0
 51
90.0
  0
ARC
  5
221
102
{ACAD_REACTORS
330
25A
330
25B
102
}
330
71
100
AcDbEntity
  8
0
  6
Continuous
 62
     2
100
AcDbCircle
 10
102.9682540321009
 20
333.7945593777167
 30
0.0
 40
1.639695123940421
100
AcDbArc
 50
195.0618917771015
 51
275.1581447696762
  0
ARC
  5
222
102
{ACAD_REACTORS
330
25A
330
25B
102
}
330
71
100
AcDbEntity
  8
0
  6
Continuous
 62
     2
100
AcDbCircle
 10
102.6793979373651
 20
336.9944499609383
 30
0.0
 40
4.852596863498824
100
AcDbArc
 50
275.1581447696362
 51
285.9799912583383
  0
ARC
  5
223
102
{ACAD_REACTORS
330
25A
330
25B
102
}
330
71
100
AcDbEntity
  8
0
  6
Continuous
 62
     2
100
AcDbCircle
 10
102.8372708124579
 20
335.09223538109
 30
0.0
 40
2.227384008972773
100
AcDbArc
 50
288.4480761181333
 51
301.930908949939
  0
ARC
  5
224
102
{ACAD_REACTORS
330
25A
330
25B
102
}
330
71
100
AcDbEntity
  8
0
  6
Continuous
 62
     2
100
AcDbCircle
 10
103.2554385461198
 20
333.8386896050533
 30
0.0
 40
0.9059297849851757
100
AcDbArc
 50
246.6277221118154
 51
288.448076118084
  0
ARC
  5
225
102
{ACAD_REACTORS
330
25A
330
25B
102
}
330
71
100
AcDbEntity
  8
0
  6
Continuous
 62
     2
100
AcDbCircle
 10
103.4763557714981
 20
333.6817690156819
 30
0.0
 40
0.9410597353349185
100
AcDbArc
 50
151.4785267423613
 51
208.5214732576691
  0
ARC
  5
226
102
{ACAD_REACTORS
330
25A
330
25B
102
}
330
71
100
AcDbEntity
  8
0
  6
Continuous
 62
     2
100
AcDbCircle
 10
103.2456685115204
 20
333.468885464638
 30
0.0
 40
0.9545230068260935
100
AcDbArc
 50
90.0
 51
109.337143219432
  0
ARC
  5
227
102
{ACAD_REACTORS
330
25C
330
25D
102
}
330
71
100
AcDbEntity
  8
0
  6
Continuous
 62
     2
100
AcDbCircle
 10
82.03553829868608
 20
337.5394142984792
 30
0.0
 40
0.3157169230759573
100
AcDbArc
 50
90.188967042546
 51
180.0
  0
ARC
  5
228
102
{ACAD_REACTORS
330
25C
330
25D
102
}
330
71
100
AcDbEntity
  8
0
  6
Continuous
 62
     2
100
AcDbCircle
 10
81.5094956005982
 20
335.8247374100046
 30
0.0
 40
0.9118481501444847
100
AcDbArc
 50
295.3740086781757
 51
64.62599132180748
  0
ARC
  5
229
102
{ACAD_REACTORS
330
258
330
259
102
}
330
71
100
AcDbEntity
  8
0
  6
Continuous
 62
     2
100
AcDbCircle
 10
86.734569333205
 20
335.0922353810905
 30
0.0
 40
2.227384008972656
100
AcDbArc
 50
288.4480761181335
 51
301.9309089499604
  0
ARC
  5
22A
102
{ACAD_REACTORS
330
258
330
259
102
}
330
71
100
AcDbEntity
  8
0
  6
Continuous
 62
     2
100
AcDbCircle
 10
87.1527370668658
 20
333.8386896050533
 30
0.0
 40
0.9059297849848149
100
AcDbArc
 50
246.6277221118682
 51
288.4480761181613
  0
ARC
  5
22B
102
{ACAD_REACTORS
330
258
330
259
102
}
330
71
100
AcDbEntity
  8
0
  6
Continuous
 62
     2
100
AcDbCircle
 10
86.99629703416377
 20
333.4766975863433
 30
0.0
 40
0.5115800601948034
100
AcDbArc
 50
208.5214732576956
 51
246.6277221118223
  0
ARC
  5
22C
102
{ACAD_REACTORS
330
258
330
259
102
}
330
71
100
AcDbEntity
  8
0
  6
Continuous
 62
     2
100
AcDbCircle
 10
87.1527370668658
 20
333.5248484263103
 30
0.0
 40
0.9059297849853228
100
AcDbArc
 50
71.55192388185348
 51
113.372277888129
  0
ARC
  5
22D
102
{ACAD_REACTORS
330
258
330
259
102
}
330
71
100
AcDbEntity
  8
0
  6
Continuous
 62
     2
100
AcDbCircle
 10
86.57669645811208
 20
330.369088070426
 30
0.0
 40
4.852596863497986
100
AcDbArc
 50
74.0200087416471
 51
84.84185523037502
  0
CIRCLE
  5
22E
102
{ACAD_REACTORS
330
25C
330
25D
102
}
330
71
100
AcDbEntity
  8
0
  6
Continuous
 62
     2
100
AcDbCircle
 10
81.4856805859254
 20
335.8247374100046
 30
0.0
 40
0.4709789327785074
  0
CIRCLE
  5
22F
330
71
100
AcDbEntity
  8
1
  6
Continuous
 62
     2
100
AcDbCircle
 10
86.94185032002508
 20
345.9863642537601
 30
0.0
 40
1.249999999999915
  0
CIRCLE
  5
230
330
71
100
AcDbEntity
  8
1
  6
Continuous
 62
     2
100
AcDbCircle
 10
86.94185032002508
 20
345.9863642537601
 30
0.0
 40
2.5
  0
TEXT
  5
231
330
71
100
AcDbEntity
  8
1
 62
     7
100
AcDbText
 10
129.5787431554763
 20
343.1613642537602
 30
0.0
 40
2.5
  1
/
 41
0.9
  7
CONVERTER_11
100
AcDbText
  0
TEXT
  5
233
330
71
100
AcDbEntity
  8
1
 62
     7
100
AcDbText
 10
131.7351076525183
 20
343.1613642537602
 30
0.0
 40
2.5
  1
02
 41
0.81
  7
CONVERTER_12
100
AcDbText
  0
TEXT
  5
234
330
71
100
AcDbEntity
  8
1
 62
     3
100
AcDbText
 10
169.3315916785354
 20
343.1613642537602
 30
0.0
 40
2.5
  1
13.04.2018
 41
0.81
  7
CONVERTER_12
100
AcDbText
  0
MTEXT
  5
235
330
71
100
AcDbEntity
  8
1
 62
     2
100
AcDbMText
 10
169.3315916785354
 20
349.3613642537601
 30
0.0
 40
1.8
 41
0.0
 71
     1
 72
     1
  1
date
  7
CONVERTER_11
 73
     1
 44
1.32052821128451
  0
MTEXT
  5
236
330
71
100
AcDbEntity
  8
1
 62
     2
100
AcDbMText
 10
139.5051954334625
 20
340.8613642537601
 30
0.0
 40
1.8
 41
0.0
 71
     1
 72
     1
  1
document-type
  7
CONVERTER_11
 73
     1
 44
1.20048019207683
  0
TEXT
  5
237
330
71
100
AcDbEntity
  8
1
 62
     3
100
AcDbText
 10
139.5051954334625
 20
334.6613642537602
 30
0.0
 40
2.5
  1
 
 41
0.81
  7
CONVERTER_12
100
AcDbText
  0
MTEXT
  5
239
330
71
100
AcDbEntity
  8
1
 62
     2
100
AcDbMText
 10
111.7051954334625
 20
349.3613642537603
 30
0.0
 40
1.8
 41
0.0
 71
     1
 72
     1
  1
document-No. / RI
  7
CONVERTER_13
 73
     1
 44
1.32052821128451
  0
TEXT
  5
23A
330
71
100
AcDbEntity
  8
1
 62
     7
100
AcDbText
 10
111.7051954334625
 20
343.1613642537602
 30
0.0
 40
2.5
  1
00317927
 41
0.81
  7
CONVERTER_12
100
AcDbText
  0
MTEXT
  5
23C
330
71
100
AcDbEntity
  8
1
 62
     3
100
AcDbMText
 10
199.2907958193748
 20
343.1613642537603
 30
0.0
 40
2.5
 41
0.0
 71
     8
 72
     1
  1
1:1
  7
CONVERTER_14
 73
     1
 44
1.32052821128451
  0
MTEXT
  5
23D
330
71
100
AcDbEntity
  8
1
 62
     2
100
AcDbMText
 10
195.9315916785352
 20
349.3613642537603
 30
0.0
 40
1.8
 41
0.0
 71
     1
 72
     1
  1
scale
  7
CONVERTER_11
 73
     1
 44
1.20048019207683
  0
MTEXT
  5
23E
330
71
100
AcDbEntity
  8
1
 62
     2
100
AcDbMText
 10
111.7051954334625
 20
340.8613642537603
 30
0.0
 40
1.8
 41
0.0
 71
     1
 72
     1
  1
ident.-No.
  7
CONVERTER_11
 73
     1
 44
1.20048019207683
  0
TEXT
  5
23F
330
71
100
AcDbEntity
  8
1
 62
     7
100
AcDbText
 10
112.1051954334622
 20
334.6613642537602
 30
0.0
 40
2.5
  1
3036767
 41
0.81
  7
CONVERTER_12
100
AcDbText
  0
MTEXT
  5
240
330
71
100
AcDbEntity
  8
1
 62
     2
100
AcDbMText
 10
39.76718070841497
 20
337.6113642537601
 30
0.0
 40
2.0
 41
0.0
 71
     5
 72
     1
  1
General Information\P- Simplified representation\P- Document excluded from change process\P- Linear dimensions [mm]
  7
CONVERTER_11
 73
     1
 44
1.20048019207683
  0
MTEXT
  5
241
330
71
100
AcDbEntity
  8
1
 62
     7
100
AcDbMText
 10
206.2499999602115
 20
399.8613642537622
 30
0.0
 40
3.5
 41
0.0
 71
     5
 72
     1
  1
C
  7
CONVERTER_11
 73
     1
 44
1.20048019207683
  0
MTEXT
  5
242
330
71
100
AcDbEntity
  8
1
 62
     7
100
AcDbMText
 10
206.2499999602115
 20
502.3613642537603
 30
0.0
 40
3.5
 41
0.0
 71
     5
 72
     1
  1
A
  7
CONVERTER_11
 73
     1
 44
1.20048019207683
  0
MTEXT
  5
243
330
71
100
AcDbEntity
  8
1
 62
     7
100
AcDbMText
 10
206.2499999602115
 20
449.8613642537622
 30
0.0
 40
3.5
 41
0.0
 71
     5
 72
     1
  1
B
  7
CONVERTER_11
 73
     1
 44
1.20048019207683
  0
MTEXT
  5
244
330
71
100
AcDbEntity
  8
1
 62
     7
100
AcDbMText
 10
206.2499999602115
 20
347.3613642537603
 30
0.0
 40
3.5
 41
0.0
 71
     5
 72
     1
  1
D
  7
CONVERTER_11
 73
     1
 44
1.20048019207683
  0
MTEXT
  5
245
330
71
100
AcDbEntity
  8
1
 62
     7
100
AcDbMText
 10
-64.0000000397871
 20
322.3613642537601
 30
0.0
 40
3.5
 41
0.0
 71
     5
 72
     1
  1
1
  7
CONVERTER_11
 73
     1
 44
1.20048019207683
  0
MTEXT
  5
246
330
71
100
AcDbEntity
  8
1
 62
     7
100
AcDbMText
 10
-14.75000003978749
 20
322.3613642537601
 30
0.0
 40
3.5
 41
0.0
 71
     5
 72
     1
  1
2
  7
CONVERTER_11
 73
     1
 44
1.20048019207683
  0
MTEXT
  5
247
330
71
100
AcDbEntity
  8
1
 62
     7
100
AcDbMText
 10
35.24999996021251
 20
322.3613642537601
 30
0.0
 40
3.5
 41
0.0
 71
     5
 72
     1
  1
3
  7
CONVERTER_11
 73
     1
 44
1.20048019207683
  0
MTEXT
  5
248
330
71
100
AcDbEntity
  8
1
 62
     7
100
AcDbMText
 10
85.24999996021239
 20
322.3613642537601
 30
0.0
 40
3.5
 41
0.0
 71
     5
 72
     1
  1
4
  7
CONVERTER_11
 73
     1
 44
1.20048019207683
  0
MTEXT
  5
249
330
71
100
AcDbEntity
  8
1
 62
     7
100
AcDbMText
 10
135.2499999602125
 20
322.3613642537601
 30
0.0
 40
3.5
 41
0.0
 71
     5
 72
     1
  1
5
  7
CONVERTER_11
 73
     1
 44
1.20048019207683
  0
MTEXT
  5
24A
330
71
100
AcDbEntity
  8
1
 62
     7
100
AcDbMText
 10
184.4999999602117
 20
322.3613642537601
 30
0.0
 40
3.5
 41
0.0
 71
     5
 72
     1
  1
6
  7
CONVERTER_11
 73
     1
 44
1.20048019207683
  0
MTEXT
  5
24B
330
71
100
AcDbEntity
  8
1
 62
     7
100
AcDbMText
 10
-85.75000003978658
 20
502.3613642537603
 30
0.0
 40
3.5
 41
0.0
 71
     5
 72
     1
  1
A
  7
CONVERTER_11
 73
     1
 44
1.20048019207683
  0
MTEXT
  5
24C
330
71
100
AcDbEntity
  8
1
 62
     7
100
AcDbMText
 10
-85.75000003978658
 20
449.8613642537603
 30
0.0
 40
3.5
 41
0.0
 71
     5
 72
     1
  1
B
  7
CONVERTER_11
 73
     1
 44
1.20048019207683
  0
MTEXT
  5
24D
330
71
100
AcDbEntity
  8
1
 62
     7
100
AcDbMText
 10
-85.75000003978658
 20
399.8613642537603
 30
0.0
 40
3.5
 41
0.0
 71
     5
 72
     1
  1
C
  7
CONVERTER_11
 73
     1
 44
1.20048019207683
  0
MTEXT
  5
24E
330
71
100
AcDbEntity
  8
1
 62
     7
100
AcDbMText
 10
-85.75000003978658
 20
347.3613642537603
 30
0.0
 40
3.5
 41
0.0
 71
     5
 72
     1
  1
D
  7
CONVERTER_11
 73
     1
 44
1.20048019207683
  0
MTEXT
  5
24F
330
71
100
AcDbEntity
  8
1
 62
     3
100
AcDbMText
 10
100.4051954334624
 20
345.9863642537603
 30
0.0
 40
2.5
 41
0.0
 71
     5
 72
     1
  1
DIN A4
  7
CONVERTER_11
 73
     1
 44
1.20048019207683
  0
MTEXT
  5
250
330
71
100
AcDbEntity
  8
1
 62
     2
100
AcDbMText
 10
111.6051954334624
 20
332.3613642537603
 30
0.0
 40
1.8
 41
0.0
 71
     1
 72
     1
  1
description
  7
CONVERTER_11
 73
     1
 44
1.20048019207683
  0
MTEXT
  5
251
330
71
100
AcDbEntity
  8
1
 62
     7
100
AcDbMText
 10
157.177597696838
 20
328.1113642537605
 30
0.0
 40
3.0
 41
0.0
 71
     5
 72
     1
  1
D-ST 6-TWIN
  7
CONVERTER_12
 73
     1
 44
1.20048019207683
  0
TEXT
  5
252
330
71
100
AcDbEntity
  8
1
 62
     2
100
AcDbText
 10
98.64050424327598
 20
326.1113642537601
 30
0.0
 40
1.8
  1
1
 41
0.9
  7
CONVERTER_11
100
AcDbText
  0
TEXT
  5
253
330
71
100
AcDbEntity
  8
1
 62
     2
100
AcDbText
 10
83.85146040380448
 20
326.0621155999583
 30
0.0
 40
1.8
  1
1
 41
0.9
  7
CONVERTER_11
100
AcDbText
  0
TEXT
  5
254
330
71
100
AcDbEntity
  8
1
 62
     2
100
AcDbText
 10
75.20519543346248
 20
326.1023470387686
 30
0.0
 40
1.8
  1
page
 41
0.9
  7
CONVERTER_11
100
AcDbText
  0
TEXT
  5
255
330
71
100
AcDbEntity
  8
1
 62
     2
100
AcDbText
 10
93.4051954334623
 20
326.1023470387686
 30
0.0
 40
1.8
  1
of
 41
0.9
  7
CONVERTER_11
100
AcDbText
  0
MTEXT
  5
256
330
71
100
AcDbEntity
  8
1
 62
     3
100
AcDbMText
 10
99.60817758507238
 20
511.6526724090591
 30
0.0
 40
1.8
 41
0.0
 71
     7
 72
     1
  3
Transfer or duplication of this document as well as the utilisation or\Pcommunication of its content are not permitted unless express consent\Pis granted. Violations give rise to claims for damages. All rights reserved\Pin case of patent, utility mo
  1
del or design patent registrations.
  7
CONVERTER_11
 73
     1
 44
0.99639855942377
  0
MTEXT
  5
257
330
71
100
AcDbEntity
  8
1
 62
     3
100
AcDbMText
 10
-83.24493225371572
 20
511.6526724090591
 30
0.0
 40
1.8
 41
0.0
 71
     7
 72
     1
  3
Weitergabe sowie Vervielf\U+00e4ltigung dieses Dokuments, Verwertung und \PMitteilung seines Inhalts sind verboten, soweit nicht ausdr\U+00fccklich gestattet. \PZuwiderhandlungen verpflichten zu Schadenersatz. Alle Rechte f\U+00fcr den Fall\Pder Pat
  1
ent-, Gebrauchsmuster- oder Designeintragung vorbehalten.
  7
CONVERTER_11
 73
     1
 44
0.99639855942377
  0
HATCH
  5
258
330
71
100
AcDbEntity
  8
1
  6
Continuous
 62
     2
100
AcDbHatch
 10
0.0
 20
0.0
 30
0.0
210
0.0
220
0.0
230
1.0
  2
_USER
 70
     0
 71
     1
 91
        1
 92
        1
 93
       14
 72
     2
 10
86.44642470938518
 20
333.6817690156819
 40
1.205656168390944
 50
164.9381082228765
 51
195.0618917770948
 73
     1
 72
     2
 10
86.86555255284799
 20
333.7945593777167
 40
1.639695123939395
 50
195.0618917770906
 51
275.1581447696391
 73
     1
 72
     2
 10
86.57669645811208
 20
336.9944499609383
 40
4.852596863498279
 50
275.1581447696248
 51
285.9799912583529
 73
     1
 72
     1
 10
87.91262437522988
 20
332.3293676551375
 11
87.91262437522988
 21
333.2018846619407
 72
     2
 10
86.734569333205
 20
335.0922353810905
 40
2.227384008972656
 50
58.06909105003953
 51
71.55192388186651
 73
     0
 72
     2
 10
87.1527370668658
 20
333.8386896050533
 40
0.9059297849848149
 50
71.55192388183869
 51
113.3722778881318
 73
     0
 72
     2
 10
86.99629703416377
 20
333.4766975863433
 40
0.5115800601948034
 50
113.3722778881777
 51
151.4785267423044
 73
     0
 72
     2
 10
87.37365429224408
 20
333.6817690156819
 40
0.9410597353332545
 50
151.4785267422882
 51
208.5214732577331
 73
     0
 72
     2
 10
86.99629703416377
 20
333.8868404450209
 40
0.511580060194904
 50
208.5214732576956
 51
246.6277221118021
 73
     0
 72
     2
 10
87.1527370668658
 20
333.5248484263103
 40
0.9059297849853228
 50
246.627722111871
 51
288.4480761181465
 73
     0
 72
     2
 10
86.734569333205
 20
332.2713026502737
 40
2.227384008973501
 50
288.4480761181326
 51
301.9309089499589
 73
     0
 72
     1
 10
87.91262437522988
 20
334.1616533694236
 11
87.91262437522988
 21
335.0341703762268
 72
     2
 10
86.57669645811208
 20
330.369088070426
 40
4.852596863497986
 50
74.0200087416471
 51
84.84185523037502
 73
     1
 72
     2
 10
86.86555255284799
 20
333.5689786536469
 40
1.639695123940563
 50
84.84185523036254
 51
164.9381082228846
 73
     1
 97
       14
330
22D
330
146
330
1FC
330
22C
330
1FD
330
1FE
330
22B
330
22A
330
229
330
147
330
1FF
330
200
330
201
330
202
 75
     1
 76
     0
 52
45.0
 41
0.1
 77
     0
 78
     1
 53
45.0
 43
0.0
 44
0.0
 45
-0.0707106781186548
 46
0.0707106781186548
 79
     0
 98
        1
 10
0.0
 20
0.0
  0
HATCH
  5
259
330
71
100
AcDbEntity
  8
1
  6
Continuous
 62
     2
100
AcDbHatch
 10
0.0
 20
0.0
 30
0.0
210
0.0
220
0.0
230
1.0
  2
_USER
 70
     0
 71
     1
 91
        1
 92
        1
 93
       14
 72
     2
 10
86.44642470938518
 20
333.6817690156819
 40
1.205656168390944
 50
164.9381082228765
 51
195.0618917770948
 73
     1
 72
     2
 10
86.86555255284799
 20
333.7945593777167
 40
1.639695123939395
 50
195.0618917770906
 51
275.1581447696391
 73
     1
 72
     2
 10
86.57669645811208
 20
336.9944499609383
 40
4.852596863498279
 50
275.1581447696248
 51
285.9799912583529
 73
     1
 72
     1
 10
87.91262437522988
 20
332.3293676551375
 11
87.91262437522988
 21
333.2018846619407
 72
     2
 10
86.734569333205
 20
335.0922353810905
 40
2.227384008972656
 50
58.06909105003953
 51
71.55192388186651
 73
     0
 72
     2
 10
87.1527370668658
 20
333.8386896050533
 40
0.9059297849848149
 50
71.55192388183869
 51
113.3722778881318
 73
     0
 72
     2
 10
86.99629703416377
 20
333.4766975863433
 40
0.5115800601948034
 50
113.3722778881777
 51
151.4785267423044
 73
     0
 72
     2
 10
87.37365429224408
 20
333.6817690156819
 40
0.9410597353332545
 50
151.4785267422882
 51
208.5214732577331
 73
     0
 72
     2
 10
86.99629703416377
 20
333.8868404450209
 40
0.511580060194904
 50
208.5214732576956
 51
246.6277221118021
 73
     0
 72
     2
 10
87.1527370668658
 20
333.5248484263103
 40
0.9059297849853228
 50
246.627722111871
 51
288.4480761181465
 73
     0
 72
     2
 10
86.734569333205
 20
332.2713026502737
 40
2.227384008973501
 50
288.4480761181326
 51
301.9309089499589
 73
     0
 72
     1
 10
87.91262437522988
 20
334.1616533694236
 11
87.91262437522988
 21
335.0341703762268
 72
     2
 10
86.57669645811208
 20
330.369088070426
 40
4.852596863497986
 50
74.0200087416471
 51
84.84185523037502
 73
     1
 72
     2
 10
86.86555255284799
 20
333.5689786536469
 40
1.639695123940563
 50
84.84185523036254
 51
164.9381082228846
 73
     1
 97
       14
330
22D
330
146
330
1FC
330
22C
330
1FD
330
1FE
330
22B
330
22A
330
229
330
147
330
1FF
330
200
330
201
330
202
 75
     1
 76
     0
 52
45.0
 41
0.1
 77
     0
 78
     1
 53
45.0
 43
0.0
 44
0.0
 45
-0.0707106781186548
 46
0.0707106781186548
 79
     0
 98
        1
 10
0.0
 20
0.0
  0
HATCH
  5
25A
330
71
100
AcDbEntity
  8
1
  6
Continuous
 62
     2
100
AcDbHatch
 10
0.0
 20
0.0
 30
0.0
210
0.0
220
0.0
230
1.0
  2
_USER
 70
     0
 71
     1
 91
        1
 92
        1
 93
       18
 72
     2
 10
102.9682540321009
 20
333.5689786536469
 40
1.639695123940157
 50
90.0
 51
164.9381082228928
 73
     1
 72
     2
 10
102.5491261886393
 20
333.6817690156819
 40
1.205656168392989
 50
164.9381082229026
 51
195.0618917770948
 73
     1
 72
     2
 10
102.9682540321009
 20
333.7945593777167
 40
1.639695123940421
 50
195.0618917771015
 51
275.1581447696762
 73
     1
 72
     2
 10
102.6793979373651
 20
336.9944499609383
 40
4.852596863498824
 50
275.1581447696362
 51
285.9799912583383
 73
     1
 72
     1
 10
104.0153258544818
 20
332.3293676551368
 11
104.0153258544818
 21
333.2018846619402
 72
     2
 10
102.8372708124579
 20
335.09223538109
 40
2.227384008972773
 50
58.06909105006095
 51
71.55192388186677
 73
     0
 72
     2
 10
103.2554385461198
 20
333.8386896050533
 40
0.9059297849851757
 50
71.55192388191598
 51
113.3722778881846
 73
     0
 72
     2
 10
103.0989985134167
 20
333.4766975863433
 40
0.5115800601959674
 50
113.3722778881601
 51
151.4785267423246
 73
     0
 72
     2
 10
103.4763557714981
 20
333.6817690156819
 40
0.9410597353349185
 50
151.4785267423309
 51
208.5214732576387
 73
     0
 72
     2
 10
103.0989985134167
 20
333.8868404450209
 40
0.5115800601944143
 50
208.5214732575803
 51
250.6628567805147
 73
     0
 72
     2
 10
103.2456685115204
 20
333.468885464638
 40
0.9545230068260935
 50
250.662856780568
 51
270.0
 73
     0
 72
     1
 10
103.2456685115204
 20
334.4234084714641
 11
104.3493078110885
 21
334.4234084714641
 72
     1
 10
104.3493078110885
 20
334.4234084714641
 11
104.3493078110885
 21
332.1548642537766
 72
     1
 10
104.3493078110885
 20
332.1548642537766
 11
105.5421005132562
 21
332.1548642537766
 72
     1
 10
105.5421005132562
 20
332.1548642537766
 11
105.5421005132562
 21
334.4234084714641
 72
     1
 10
105.5421005132562
 20
334.4234084714641
 11
106.3531995507296
 21
334.4234084714641
 72
     1
 10
106.3531995507296
 20
334.4234084714641
 11
106.3531995507296
 21
335.2086737775877
 72
     1
 10
106.3531995507296
 20
335.2086737775877
 11
102.9682540321009
 21
335.2086737775871
 97
       18
330
1AC
330
1AB
330
1AA
330
1A9
330
1AE
330
148
330
226
330
207
330
225
330
208
330
224
330
223
330
149
330
222
330
221
330
209
330
20A
330
1AD
 75
     1
 76
     0
 52
45.0
 41
0.1
 77
     0
 78
     1
 53
45.0
 43
0.0
 44
0.0
 45
-0.0707106781186548
 46
0.0707106781186548
 79
     0
 98
        1
 10
0.0
 20
0.0
  0
HATCH
  5
25B
330
71
100
AcDbEntity
  8
1
  6
Continuous
 62
     2
100
AcDbHatch
 10
0.0
 20
0.0
 30
0.0
210
0.0
220
0.0
230
1.0
  2
_USER
 70
     0
 71
     1
 91
        1
 92
        1
 93
       18
 72
     2
 10
102.9682540321009
 20
333.5689786536469
 40
1.639695123940157
 50
90.0
 51
164.9381082228928
 73
     1
 72
     2
 10
102.5491261886393
 20
333.6817690156819
 40
1.205656168392989
 50
164.9381082229026
 51
195.0618917770948
 73
     1
 72
     2
 10
102.9682540321009
 20
333.7945593777167
 40
1.639695123940421
 50
195.0618917771015
 51
275.1581447696762
 73
     1
 72
     2
 10
102.6793979373651
 20
336.9944499609383
 40
4.852596863498824
 50
275.1581447696362
 51
285.9799912583383
 73
     1
 72
     1
 10
104.0153258544818
 20
332.3293676551368
 11
104.0153258544818
 21
333.2018846619402
 72
     2
 10
102.8372708124579
 20
335.09223538109
 40
2.227384008972773
 50
58.06909105006095
 51
71.55192388186677
 73
     0
 72
     2
 10
103.2554385461198
 20
333.8386896050533
 40
0.9059297849851757
 50
71.55192388191598
 51
113.3722778881846
 73
     0
 72
     2
 10
103.0989985134167
 20
333.4766975863433
 40
0.5115800601959674
 50
113.3722778881601
 51
151.4785267423246
 73
     0
 72
     2
 10
103.4763557714981
 20
333.6817690156819
 40
0.9410597353349185
 50
151.4785267423309
 51
208.5214732576387
 73
     0
 72
     2
 10
103.0989985134167
 20
333.8868404450209
 40
0.5115800601944143
 50
208.5214732575803
 51
250.6628567805147
 73
     0
 72
     2
 10
103.2456685115204
 20
333.468885464638
 40
0.9545230068260935
 50
250.662856780568
 51
270.0
 73
     0
 72
     1
 10
103.2456685115204
 20
334.4234084714641
 11
104.3493078110885
 21
334.4234084714641
 72
     1
 10
104.3493078110885
 20
334.4234084714641
 11
104.3493078110885
 21
332.1548642537766
 72
     1
 10
104.3493078110885
 20
332.1548642537766
 11
105.5421005132562
 21
332.1548642537766
 72
     1
 10
105.5421005132562
 20
332.1548642537766
 11
105.5421005132562
 21
334.4234084714641
 72
     1
 10
105.5421005132562
 20
334.4234084714641
 11
106.3531995507296
 21
334.4234084714641
 72
     1
 10
106.3531995507296
 20
334.4234084714641
 11
106.3531995507296
 21
335.2086737775877
 72
     1
 10
106.3531995507296
 20
335.2086737775877
 11
102.9682540321009
 21
335.2086737775871
 97
       18
330
1AC
330
1AB
330
1AA
330
1A9
330
1AE
330
148
330
226
330
207
330
225
330
208
330
224
330
223
330
149
330
222
330
221
330
209
330
20A
330
1AD
 75
     1
 76
     0
 52
45.0
 41
0.1
 77
     0
 78
     1
 53
45.0
 43
0.0
 44
0.0
 45
-0.0707106781186548
 46
0.0707106781186548
 79
     0
 98
        1
 10
0.0
 20
0.0
  0
HATCH
  5
25C
330
71
100
AcDbEntity
  8
1
  6
Continuous
 62
     2
100
AcDbHatch
 10
0.0
 20
0.0
 30
0.0
210
0.0
220
0.0
230
1.0
  2
_USER
 70
     0
 71
     1
 91
        4
 92
        1
 93
        8
 72
     2
 10
78.86609493540789
 20
338.1436196383601
 40
0.4242446153837705
 50
90.0
 51
180.0
 73
     1
 72
     1
 10
78.44185032002508
 20
338.1436196383601
 11
78.44185032002508
 21
332.5791088691599
 72
     2
 10
78.86609493540789
 20
332.5791088691599
 40
0.4242446153828041
 50
180.0
 51
270.0
 73
     1
 72
     1
 10
78.86609493540789
 20
332.1548642537766
 11
84.33940702612469
 21
332.1548642537766
 72
     2
 10
84.33940702612469
 20
332.5791088691599
 40
0.4242446153832589
 50
270.0
 51
360.0
 73
     1
 72
     1
 10
84.76365164150857
 20
332.5791088691599
 11
84.76365164150857
 21
338.1436196383601
 72
     2
 10
84.33940702612469
 20
338.1436196383601
 40
0.4242446153838841
 50
0.0
 51
90.0
 73
     1
 72
     1
 10
84.33940702612469
 20
338.5678642537439
 11
78.86609493540789
 21
338.5678642537439
 97
        8
330
21A
330
177
330
219
330
178
330
210
330
175
330
21B
330
176
 92
       16
 93
        1
 72
     2
 10
81.4856805859254
 20
335.8247374100046
 40
0.4709789327785074
 50
0.0
 51
360.0
 73
     1
 97
        1
330
22E
 92
       16
 93
        8
 72
     2
 10
81.5094956005982
 20
335.8247374100046
 40
0.9118481501444847
 50
295.3740086781757
 51
424.6259913218075
 73
     1
 72
     2
 10
82.03553829868608
 20
336.9338790099724
 40
0.315716923076792
 50
115.3740086783563
 51
180.0
 73
     0
 72
     1
 10
81.71982137560929
 20
336.9338790099724
 11
81.71982137560929
 21
337.5394142984792
 72
     2
 10
82.03553829868608
 20
337.5394142984792
 40
0.3157169230759573
 50
180.0
 51
269.811032957454
 73
     0
 72
     2
 10
82.0411544339961
 20
335.83657935091
 40
2.018561131933209
 50
269.8110329575858
 51
450.1889670424142
 73
     0
 72
     2
 10
82.03553829868608
 20
334.1337444033411
 40
0.315716923076792
 50
90.1889670425458
 51
180.0
 73
     0
 72
     1
 10
81.71982137560929
 20
334.1337444033411
 11
81.71982137560929
 21
334.7155958100361
 72
     2
 10
82.03553829868608
 20
334.7155958100361
 40
0.3157169230765842
 50
180.0
 51
244.6259913216525
 73
     0
 97
        8
330
228
330
204
330
1B0
330
227
330
205
330
206
330
1AF
330
203
 92
       16
 93
       12
 72
     1
 10
79.45998961215437
 20
332.8674198093335
 11
80.935822873164
 21
332.8674198093335
 72
     2
 10
80.935822873164
 20
333.1831367324102
 40
0.3157169230767067
 50
270.0
 51
360.0
 73
     1
 72
     1
 10
81.25153979624059
 20
333.1831367324102
 11
81.25153979624059
 21
334.7139076639418
 72
     2
 10
80.935822873164
 20
334.7139076639418
 40
0.315716923076593
 50
0.0
 51
64.80558935146027
 73
     1
 72
     2
 10
81.45840732073898
 20
335.8247374100046
 40
0.911897523557486
 50
115.1944106485122
 51
244.805589351468
 73
     0
 72
     2
 10
80.935822873164
 20
336.9355671560668
 40
0.3157169230762231
 50
295.1944106485309
 51
360.0
 73
     1
 72
     1
 10
81.25153979624059
 20
336.9355671560668
 11
81.25153979624059
 21
337.5395917751273
 72
     2
 10
80.935822873164
 20
337.5395917751273
 40
0.315716923076593
 50
0.0
 51
90.0
 73
     1
 72
     1
 10
80.935822873164
 20
337.8553086982034
 11
79.45998961215437
 21
337.8553086982034
 72
     2
 10
79.45998961215437
 20
337.5395917751273
 40
0.3157169230760815
 50
90.0
 51
180.0
 73
     1
 72
     1
 10
79.14427268907869
 20
337.5395917751273
 11
79.14427268907869
 21
333.1831367324102
 72
     2
 10
79.45998961215437
 20
333.1831367324102
 40
0.3157169230756836
 50
180.0
 51
270.0
 73
     1
 97
       12
330
17C
330
20D
330
17B
330
21E
330
17A
330
21D
330
20E
330
20F
330
179
330
21C
330
174
330
21F
 75
     1
 76
     0
 52
45.0
 41
0.1
 77
     0
 78
     1
 53
45.0
 43
0.0
 44
0.0
 45
-0.0707106781186548
 46
0.0707106781186548
 79
     0
 98
        1
 10
0.0
 20
0.0
  0
HATCH
  5
25D
330
71
100
AcDbEntity
  8
1
  6
Continuous
 62
     2
100
AcDbHatch
 10
0.0
 20
0.0
 30
0.0
210
0.0
220
0.0
230
1.0
  2
_USER
 70
     0
 71
     1
 91
        4
 92
        1
 93
        8
 72
     2
 10
78.86609493540789
 20
338.1436196383601
 40
0.4242446153837705
 50
90.0
 51
180.0
 73
     1
 72
     1
 10
78.44185032002508
 20
338.1436196383601
 11
78.44185032002508
 21
332.5791088691599
 72
     2
 10
78.86609493540789
 20
332.5791088691599
 40
0.4242446153828041
 50
180.0
 51
270.0
 73
     1
 72
     1
 10
78.86609493540789
 20
332.1548642537766
 11
84.33940702612469
 21
332.1548642537766
 72
     2
 10
84.33940702612469
 20
332.5791088691599
 40
0.4242446153832589
 50
270.0
 51
360.0
 73
     1
 72
     1
 10
84.76365164150857
 20
332.5791088691599
 11
84.76365164150857
 21
338.1436196383601
 72
     2
 10
84.33940702612469
 20
338.1436196383601
 40
0.4242446153838841
 50
0.0
 51
90.0
 73
     1
 72
     1
 10
84.33940702612469
 20
338.5678642537439
 11
78.86609493540789
 21
338.5678642537439
 97
        8
330
21A
330
177
330
219
330
178
330
210
330
175
330
21B
330
176
 92
       16
 93
        1
 72
     2
 10
81.4856805859254
 20
335.8247374100046
 40
0.4709789327785074
 50
0.0
 51
360.0
 73
     1
 97
        1
330
22E
 92
       16
 93
        8
 72
     2
 10
81.5094956005982
 20
335.8247374100046
 40
0.9118481501444847
 50
295.3740086781757
 51
424.6259913218075
 73
     1
 72
     2
 10
82.03553829868608
 20
336.9338790099724
 40
0.315716923076792
 50
115.3740086783563
 51
180.0
 73
     0
 72
     1
 10
81.71982137560929
 20
336.9338790099724
 11
81.71982137560929
 21
337.5394142984792
 72
     2
 10
82.03553829868608
 20
337.5394142984792
 40
0.3157169230759573
 50
180.0
 51
269.811032957454
 73
     0
 72
     2
 10
82.0411544339961
 20
335.83657935091
 40
2.018561131933209
 50
269.8110329575858
 51
450.1889670424142
 73
     0
 72
     2
 10
82.03553829868608
 20
334.1337444033411
 40
0.315716923076792
 50
90.1889670425458
 51
180.0
 73
     0
 72
     1
 10
81.71982137560929
 20
334.1337444033411
 11
81.71982137560929
 21
334.7155958100361
 72
     2
 10
82.03553829868608
 20
334.7155958100361
 40
0.3157169230765842
 50
180.0
 51
244.6259913216525
 73
     0
 97
        8
330
228
330
204
330
1B0
330
227
330
205
330
206
330
1AF
330
203
 92
       16
 93
       12
 72
     1
 10
79.45998961215437
 20
332.8674198093335
 11
80.935822873164
 21
332.8674198093335
 72
     2
 10
80.935822873164
 20
333.1831367324102
 40
0.3157169230767067
 50
270.0
 51
360.0
 73
     1
 72
     1
 10
81.25153979624059
 20
333.1831367324102
 11
81.25153979624059
 21
334.7139076639418
 72
     2
 10
80.935822873164
 20
334.7139076639418
 40
0.315716923076593
 50
0.0
 51
64.80558935146027
 73
     1
 72
     2
 10
81.45840732073898
 20
335.8247374100046
 40
0.911897523557486
 50
115.1944106485122
 51
244.805589351468
 73
     0
 72
     2
 10
80.935822873164
 20
336.9355671560668
 40
0.3157169230762231
 50
295.1944106485309
 51
360.0
 73
     1
 72
     1
 10
81.25153979624059
 20
336.9355671560668
 11
81.25153979624059
 21
337.5395917751273
 72
     2
 10
80.935822873164
 20
337.5395917751273
 40
0.315716923076593
 50
0.0
 51
90.0
 73
     1
 72
     1
 10
80.935822873164
 20
337.8553086982034
 11
79.45998961215437
 21
337.8553086982034
 72
     2
 10
79.45998961215437
 20
337.5395917751273
 40
0.3157169230760815
 50
90.0
 51
180.0
 73
     1
 72
     1
 10
79.14427268907869
 20
337.5395917751273
 11
79.14427268907869
 21
333.1831367324102
 72
     2
 10
79.45998961215437
 20
333.1831367324102
 40
0.3157169230756836
 50
180.0
 51
270.0
 73
     1
 97
       12
330
17C
330
20D
330
17B
330
21E
330
17A
330
21D
330
20E
330
20F
330
179
330
21C
330
174
330
21F
 75
     1
 76
     0
 52
45.0
 41
0.1
 77
     0
 78
     1
 53
45.0
 43
0.0
 44
0.0
 45
-0.0707106781186548
 46
0.0707106781186548
 79
     0
 98
        1
 10
0.0
 20
0.0
  0
HATCH
  5
25E
330
71
100
AcDbEntity
  8
1
  6
Continuous
 62
     2
100
AcDbHatch
 10
0.0
 20
0.0
 30
0.0
210
0.0
220
0.0
230
1.0
  2
_USER
 70
     0
 71
     1
 91
        2
 92
        1
 93
       12
 72
     2
 10
93.54125893939718
 20
337.0409594918561
 40
1.526904761905996
 50
90.0
 51
270.0
 73
     1
 72
     1
 10
93.54125893939718
 20
335.5140547299509
 11
96.69157866317818
 21
335.5140547299509
 72
     1
 10
96.69157866317818
 20
335.5140547299509
 11
96.69157866317818
 21
336.2120683353934
 72
     1
 10
96.69157866317818
 20
336.2120683353934
 11
95.3556508367505
 21
336.2120683353934
 72
     1
 10
95.3556508367505
 20
336.2120683353934
 11
95.3556508367505
 21
336.6919526891351
 72
     1
 10
95.3556508367505
 20
336.6919526891351
 11
96.69157866317818
 21
336.6919526891351
 72
     1
 10
96.69157866317818
 20
336.6919526891351
 11
96.69157866317818
 21
337.3899662945773
 72
     1
 10
96.69157866317818
 20
337.3899662945773
 11
95.3556508367505
 21
337.3899662945773
 72
     1
 10
95.3556508367505
 20
337.3899662945773
 11
95.3556508367505
 21
337.8698506483191
 72
     1
 10
95.3556508367505
 20
337.8698506483191
 11
96.69157866317818
 21
337.8698506483191
 72
     1
 10
96.69157866317818
 20
337.8698506483191
 11
96.69157866317818
 21
338.5678642537621
 72
     1
 10
96.69157866317818
 20
338.5678642537621
 11
93.54125893939718
 21
338.5678642537621
 97
       12
330
16B
330
165
330
18C
330
18B
330
18A
330
189
330
166
330
167
330
168
330
169
330
20B
330
16A
 92
       16
 93
        4
 72
     2
 10
93.95727098590868
 20
337.0409594918561
 40
0.7717997786797426
 50
141.8795802028338
 51
218.1204197971529
 73
     1
 72
     2
 10
93.75753094956238
 20
336.8842283137358
 40
0.5179085730134722
 50
218.120419797156
 51
321.8795802028517
 73
     1
 72
     2
 10
93.5577909132162
 20
337.0409594918561
 40
0.7717997786796023
 50
321.8795802028471
 51
398.1204197971662
 73
     1
 72
     2
 10
93.75753094956238
 20
337.1976906699766
 40
0.5179085730135616
 50
38.12041979714829
 51
141.879580202844
 73
     1
 97
        4
330
218
330
217
330
212
330
211
 75
     1
 76
     0
 52
45.0
 41
0.1
 77
     0
 78
     1
 53
45.0
 43
0.0
 44
0.0
 45
-0.0707106781186548
 46
0.0707106781186548
 79
     0
 98
        1
 10
0.0
 20
0.0
  0
HATCH
  5
25F
330
71
100
AcDbEntity
  8
1
  6
Continuous
 62
     2
100
AcDbHatch
 10
0.0
 20
0.0
 30
0.0
210
0.0
220
0.0
230
1.0
  2
_USER
 70
     0
 71
     1
 91
        2
 92
        1
 93
       12
 72
     2
 10
93.54125893939718
 20
337.0409594918561
 40
1.526904761905996
 50
90.0
 51
270.0
 73
     1
 72
     1
 10
93.54125893939718
 20
335.5140547299509
 11
96.69157866317818
 21
335.5140547299509
 72
     1
 10
96.69157866317818
 20
335.5140547299509
 11
96.69157866317818
 21
336.2120683353934
 72
     1
 10
96.69157866317818
 20
336.2120683353934
 11
95.3556508367505
 21
336.2120683353934
 72
     1
 10
95.3556508367505
 20
336.2120683353934
 11
95.3556508367505
 21
336.6919526891351
 72
     1
 10
95.3556508367505
 20
336.6919526891351
 11
96.69157866317818
 21
336.6919526891351
 72
     1
 10
96.69157866317818
 20
336.6919526891351
 11
96.69157866317818
 21
337.3899662945773
 72
     1
 10
96.69157866317818
 20
337.3899662945773
 11
95.3556508367505
 21
337.3899662945773
 72
     1
 10
95.3556508367505
 20
337.3899662945773
 11
95.3556508367505
 21
337.8698506483191
 72
     1
 10
95.3556508367505
 20
337.8698506483191
 11
96.69157866317818
 21
337.8698506483191
 72
     1
 10
96.69157866317818
 20
337.8698506483191
 11
96.69157866317818
 21
338.5678642537621
 72
     1
 10
96.69157866317818
 20
338.5678642537621
 11
93.54125893939718
 21
338.5678642537621
 97
       12
330
16B
330
165
330
18C
330
18B
330
18A
330
189
330
166
330
167
330
168
330
169
330
20B
330
16A
 92
       16
 93
        4
 72
     2
 10
93.95727098590868
 20
337.0409594918561
 40
0.7717997786797426
 50
141.8795802028338
 51
218.1204197971529
 73
     1
 72
     2
 10
93.75753094956238
 20
336.8842283137358
 40
0.5179085730134722
 50
218.120419797156
 51
321.8795802028517
 73
     1
 72
     2
 10
93.5577909132162
 20
337.0409594918561
 40
0.7717997786796023
 50
321.8795802028471
 51
398.1204197971662
 73
     1
 72
     2
 10
93.75753094956238
 20
337.1976906699766
 40
0.5179085730135616
 50
38.12041979714829
 51
141.879580202844
 73
     1
 97
        4
330
218
330
217
330
212
330
211
 75
     1
 76
     0
 52
45.0
 41
0.1
 77
     0
 78
     1
 53
45.0
 43
0.0
 44
0.0
 45
-0.0707106781186548
 46
0.0707106781186548
 79
     0
 98
        1
 10
0.0
 20
0.0
  0
HATCH
  5
260
330
71
100
AcDbEntity
  8
1
  6
Continuous
 62
     2
100
AcDbHatch
 10
0.0
 20
0.0
 30
0.0
210
0.0
220
0.0
230
1.0
  2
_USER
 70
     0
 71
     1
 91
        2
 92
        1
 93
        4
 72
     2
 10
89.51564357693559
 20
333.6817690156819
 40
1.458034083651515
 50
117.5481481756619
 51
242.451851824337
 73
     1
 72
     2
 10
89.79658346876889
 20
334.2203440259851
 40
2.065479772208433
 50
242.4518518243391
 51
297.5481481756882
 73
     1
 72
     2
 10
90.07752336060219
 20
333.6817690156819
 40
1.458034083651977
 50
297.5481481757016
 51
422.4518518242994
 73
     1
 72
     2
 10
89.79658346876889
 20
333.1431940053791
 40
2.065479772208593
 50
62.45185182430674
 51
117.548148175666
 73
     1
 97
        4
330
216
330
213
330
215
330
214
 92
       16
 93
        4
 72
     2
 10
89.79658346876889
 20
333.8385001938024
 40
0.5179085730132998
 50
38.12041979714704
 51
141.8795802028588
 73
     1
 72
     2
 10
89.99632350511499
 20
333.6817690156819
 40
0.7717997786794808
 50
141.8795802028346
 51
218.1204197971753
 73
     1
 72
     2
 10
89.79658346876889
 20
333.5250378375619
 40
0.5179085730138231
 50
218.1204197972055
 51
321.8795802027886
 73
     1
 72
     2
 10
89.59684343242247
 20
333.6817690156819
 40
0.7717997786797649
 50
321.8795802028351
 51
398.120419797155
 73
     1
 97
        4
330
1F9
330
1FA
330
1FB
330
1F8
 75
     1
 76
     0
 52
45.0
 41
0.1
 77
     0
 78
     1
 53
45.0
 43
0.0
 44
0.0
 45
-0.0707106781186548
 46
0.0707106781186548
 79
     0
 98
        1
 10
0.0
 20
0.0
  0
HATCH
  5
261
330
71
100
AcDbEntity
  8
1
  6
Continuous
 62
     2
100
AcDbHatch
 10
0.0
 20
0.0
 30
0.0
210
0.0
220
0.0
230
1.0
  2
_USER
 70
     0
 71
     1
 91
        2
 92
        1
 93
        4
 72
     2
 10
89.51564357693559
 20
333.6817690156819
 40
1.458034083651515
 50
117.5481481756619
 51
242.451851824337
 73
     1
 72
     2
 10
89.79658346876889
 20
334.2203440259851
 40
2.065479772208433
 50
242.4518518243391
 51
297.5481481756882
 73
     1
 72
     2
 10
90.07752336060219
 20
333.6817690156819
 40
1.458034083651977
 50
297.5481481757016
 51
422.4518518242994
 73
     1
 72
     2
 10
89.79658346876889
 20
333.1431940053791
 40
2.065479772208593
 50
62.45185182430674
 51
117.548148175666
 73
     1
 97
        4
330
216
330
213
330
215
330
214
 92
       16
 93
        4
 72
     2
 10
89.79658346876889
 20
333.8385001938024
 40
0.5179085730132998
 50
38.12041979714704
 51
141.8795802028588
 73
     1
 72
     2
 10
89.99632350511499
 20
333.6817690156819
 40
0.7717997786794808
 50
141.8795802028346
 51
218.1204197971753
 73
     1
 72
     2
 10
89.79658346876889
 20
333.5250378375619
 40
0.5179085730138231
 50
218.1204197972055
 51
321.8795802027886
 73
     1
 72
     2
 10
89.59684343242247
 20
333.6817690156819
 40
0.7717997786797649
 50
321.8795802028351
 51
398.120419797155
 73
     1
 97
        4
330
1F9
330
1FA
330
1FB
330
1F8
 75
     1
 76
     0
 52
45.0
 41
0.1
 77
     0
 78
     1
 53
45.0
 43
0.0
 44
0.0
 45
-0.0707106781186548
 46
0.0707106781186548
 79
     0
 98
        1
 10
0.0
 20
0.0
  0
HATCH
  5
262
330
71
100
AcDbEntity
  8
1
  6
Continuous
 62
     2
100
AcDbHatch
 10
0.0
 20
0.0
 30
0.0
210
0.0
220
0.0
230
1.0
  2
_USER
 70
     0
 71
     1
 91
        2
 92
        1
 93
        6
 72
     1
 10
85.24076872237538
 20
338.5678642537621
 11
85.24076872237538
 21
335.5140547299509
 72
     1
 10
85.24076872237538
 20
335.5140547299509
 11
86.4812731326295
 21
335.5140547299509
 72
     1
 10
86.4812731326295
 20
335.5140547299509
 11
86.4812731326295
 21
336.4571329710947
 72
     1
 10
86.4812731326295
 20
336.4571329710947
 11
87.24004072040978
 21
336.4571329710947
 72
     2
 10
87.24004072040978
 20
337.5124986124284
 40
1.055365641333651
 50
270.0
 51
450.0
 73
     1
 72
     1
 10
87.24004072040978
 20
338.5678642537621
 11
85.24076872237538
 21
338.5678642537621
 97
        6
330
220
330
17D
330
173
330
172
330
17F
330
17E
 92
       16
 93
        4
 72
     1
 10
86.7985681941714
 20
337.904758408322
 11
86.4812731326295
 21
337.904758408322
 72
     1
 10
86.4812731326295
 20
337.904758408322
 11
86.4812731326295
 21
337.1990307589798
 72
     1
 10
86.4812731326295
 20
337.1990307589798
 11
86.7985681941714
 21
337.1990307589798
 72
     2
 10
86.7985681941714
 20
337.5518945836509
 40
0.3528638246710898
 50
270.0
 51
450.0
 73
     1
 97
        4
330
180
330
171
330
181
330
20C
 75
     1
 76
     0
 52
45.0
 41
0.1
 77
     0
 78
     1
 53
45.0
 43
0.0
 44
0.0
 45
-0.0707106781186548
 46
0.0707106781186548
 79
     0
 98
        1
 10
0.0
 20
0.0
  0
HATCH
  5
263
330
71
100
AcDbEntity
  8
1
  6
Continuous
 62
     2
100
AcDbHatch
 10
0.0
 20
0.0
 30
0.0
210
0.0
220
0.0
230
1.0
  2
_USER
 70
     0
 71
     1
 91
        2
 92
        1
 93
        6
 72
     1
 10
85.24076872237538
 20
338.5678642537621
 11
85.24076872237538
 21
335.5140547299509
 72
     1
 10
85.24076872237538
 20
335.5140547299509
 11
86.4812731326295
 21
335.5140547299509
 72
     1
 10
86.4812731326295
 20
335.5140547299509
 11
86.4812731326295
 21
336.4571329710947
 72
     1
 10
86.4812731326295
 20
336.4571329710947
 11
87.24004072040978
 21
336.4571329710947
 72
     2
 10
87.24004072040978
 20
337.5124986124284
 40
1.055365641333651
 50
270.0
 51
450.0
 73
     1
 72
     1
 10
87.24004072040978
 20
338.5678642537621
 11
85.24076872237538
 21
338.5678642537621
 97
        6
330
220
330
17D
330
173
330
172
330
17F
330
17E
 92
       16
 93
        4
 72
     1
 10
86.7985681941714
 20
337.904758408322
 11
86.4812731326295
 21
337.904758408322
 72
     1
 10
86.4812731326295
 20
337.904758408322
 11
86.4812731326295
 21
337.1990307589798
 72
     1
 10
86.4812731326295
 20
337.1990307589798
 11
86.7985681941714
 21
337.1990307589798
 72
     2
 10
86.7985681941714
 20
337.5518945836509
 40
0.3528638246710898
 50
270.0
 51
450.0
 73
     1
 97
        4
330
180
330
171
330
181
330
20C
 75
     1
 76
     0
 52
45.0
 41
0.1
 77
     0
 78
     1
 53
45.0
 43
0.0
 44
0.0
 45
-0.0707106781186548
 46
0.0707106781186548
 79
     0
 98
        1
 10
0.0
 20
0.0
  0
HATCH
  5
264
330
71
100
AcDbEntity
  8
1
  6
Continuous
 62
     2
100
AcDbHatch
 10
0.0
 20
0.0
 30
0.0
210
0.0
220
0.0
230
1.0
  2
_USER
 70
     0
 71
     1
 91
        1
 92
        1
 93
       12
 72
     1
 10
104.8550519168086
 20
338.5678642537621
 11
106.2577761345558
 21
338.5678642537621
 72
     1
 10
106.2577761345558
 20
338.5678642537621
 11
104.9552465037893
 21
337.0949137237259
 72
     1
 10
104.9552465037893
 20
337.0949137237259
 11
106.3531995507296
 21
335.5140547299509
 72
     1
 10
106.3531995507296
 20
335.5140547299509
 11
104.9504753329813
 21
335.5140547299509
 72
     1
 10
104.9504753329813
 20
335.5140547299509
 11
104.2538843949158
 21
336.3017865152445
 72
     1
 10
104.2538843949158
 20
336.3017865152445
 11
103.5572934568501
 21
335.5140547299509
 72
     1
 10
103.5572934568501
 20
335.5140547299509
 11
102.1545692391019
 21
335.5140547299509
 72
     1
 10
102.1545692391019
 20
335.5140547299509
 11
103.5525222860422
 21
337.0949137237259
 72
     1
 10
103.5525222860422
 20
337.0949137237259
 11
102.2499926552747
 21
338.5678642537621
 72
     1
 10
102.2499926552747
 20
338.5678642537621
 11
103.652716873024
 21
338.5678642537621
 72
     1
 10
103.652716873024
 20
338.5678642537621
 11
104.2538843949158
 21
337.8880409322065
 72
     1
 10
104.2538843949158
 20
337.8880409322065
 11
104.8550519168086
 21
338.5678642537621
 97
       12
330
14C
330
1A5
330
1A4
330
1A3
330
1A2
330
14D
330
14E
330
14A
330
14B
330
1A8
330
1A7
330
1A6
 75
     1
 76
     0
 52
45.0
 41
0.1
 77
     0
 78
     1
 53
45.0
 43
0.0
 44
0.0
 45
-0.0707106781186548
 46
0.0707106781186548
 79
     0
 98
        1
 10
0.0
 20
0.0
  0
HATCH
  5
265
330
71
100
AcDbEntity
  8
1
  6
Continuous
 62
     2
100
AcDbHatch
 10
0.0
 20
0.0
 30
0.0
210
0.0
220
0.0
230
1.0
  2
_USER
 70
     0
 71
     1
 91
        1
 92
        1
 93
       12
 72
     1
 10
104.8550519168086
 20
338.5678642537621
 11
106.2577761345558
 21
338.5678642537621
 72
     1
 10
106.2577761345558
 20
338.5678642537621
 11
104.9552465037893
 21
337.0949137237259
 72
     1
 10
104.9552465037893
 20
337.0949137237259
 11
106.3531995507296
 21
335.5140547299509
 72
     1
 10
106.3531995507296
 20
335.5140547299509
 11
104.9504753329813
 21
335.5140547299509
 72
     1
 10
104.9504753329813
 20
335.5140547299509
 11
104.2538843949158
 21
336.3017865152445
 72
     1
 10
104.2538843949158
 20
336.3017865152445
 11
103.5572934568501
 21
335.5140547299509
 72
     1
 10
103.5572934568501
 20
335.5140547299509
 11
102.1545692391019
 21
335.5140547299509
 72
     1
 10
102.1545692391019
 20
335.5140547299509
 11
103.5525222860422
 21
337.0949137237259
 72
     1
 10
103.5525222860422
 20
337.0949137237259
 11
102.2499926552747
 21
338.5678642537621
 72
     1
 10
102.2499926552747
 20
338.5678642537621
 11
103.652716873024
 21
338.5678642537621
 72
     1
 10
103.652716873024
 20
338.5678642537621
 11
104.2538843949158
 21
337.8880409322065
 72
     1
 10
104.2538843949158
 20
337.8880409322065
 11
104.8550519168086
 21
338.5678642537621
 97
       12
330
14C
330
1A5
330
1A4
330
1A3
330
1A2
330
14D
330
14E
330
14A
330
14B
330
1A8
330
1A7
330
1A6
 75
     1
 76
     0
 52
45.0
 41
0.1
 77
     0
 78
     1
 53
45.0
 43
0.0
 44
0.0
 45
-0.0707106781186548
 46
0.0707106781186548
 79
     0
 98
        1
 10
0.0
 20
0.0
  0
HATCH
  5
266
330
71
100
AcDbEntity
  8
1
  6
Continuous
 62
     2
100
AcDbHatch
 10
0.0
 20
0.0
 30
0.0
210
0.0
220
0.0
230
1.0
  2
_USER
 70
     0
 71
     1
 91
        1
 92
        1
 93
        4
 72
     1
 10
102.035289968885
 20
338.5678642537621
 11
102.035289968885
 21
335.5140547299509
 72
     1
 10
102.035289968885
 20
335.5140547299509
 11
100.7947855586321
 21
335.5140547299509
 72
     1
 10
100.7947855586321
 20
335.5140547299509
 11
100.7947855586321
 21
338.5678642537621
 72
     1
 10
100.7947855586321
 20
338.5678642537621
 11
102.035289968885
 21
338.5678642537621
 97
        4
330
1A0
330
14F
330
19F
330
1A1
 75
     1
 76
     0
 52
45.0
 41
0.1
 77
     0
 78
     1
 53
45.0
 43
0.0
 44
0.0
 45
-0.0707106781186548
 46
0.0707106781186548
 79
     0
 98
        1
 10
0.0
 20
0.0
  0
HATCH
  5
267
330
71
100
AcDbEntity
  8
1
  6
Continuous
 62
     2
100
AcDbHatch
 10
0.0
 20
0.0
 30
0.0
210
0.0
220
0.0
230
1.0
  2
_USER
 70
     0
 71
     1
 91
        1
 92
        1
 93
        4
 72
     1
 10
102.035289968885
 20
338.5678642537621
 11
102.035289968885
 21
335.5140547299509
 72
     1
 10
102.035289968885
 20
335.5140547299509
 11
100.7947855586321
 21
335.5140547299509
 72
     1
 10
100.7947855586321
 20
335.5140547299509
 11
100.7947855586321
 21
338.5678642537621
 72
     1
 10
100.7947855586321
 20
338.5678642537621
 11
102.035289968885
 21
338.5678642537621
 97
        4
330
1A0
330
14F
330
19F
330
1A1
 75
     1
 76
     0
 52
45.0
 41
0.1
 77
     0
 78
     1
 53
45.0
 43
0.0
 44
0.0
 45
-0.0707106781186548
 46
0.0707106781186548
 79
     0
 98
        1
 10
0.0
 20
0.0
  0
HATCH
  5
268
330
71
100
AcDbEntity
  8
1
  6
Continuous
 62
     2
100
AcDbHatch
 10
0.0
 20
0.0
 30
0.0
210
0.0
220
0.0
230
1.0
  2
_USER
 70
     0
 71
     1
 91
        2
 92
        1
 93
        8
 72
     1
 10
101.644845965353
 20
332.1548642537766
 11
100.4043415550991
 21
332.1548642537766
 72
     1
 10
100.4043415550991
 20
332.1548642537766
 11
100.1928615016233
 21
332.6958247979944
 72
     1
 10
100.1928615016233
 20
332.6958247979944
 11
99.06041992494949
 21
332.6958247979944
 72
     1
 10
99.06041992494949
 20
332.6958247979944
 11
98.84893987147368
 21
332.1548642537766
 72
     1
 10
98.84893987147368
 20
332.1548642537766
 11
97.6084354612207
 21
332.1548642537766
 72
     1
 10
97.6084354612207
 20
332.1548642537766
 11
99.00638850816
 21
335.2086737775877
 72
     1
 10
99.00638850816
 20
335.2086737775877
 11
100.2468929184127
 21
335.2086737775877
 72
     1
 10
100.2468929184127
 20
335.2086737775877
 11
101.644845965353
 21
332.1548642537766
 97
        8
330
19B
330
155
330
19A
330
19D
330
152
330
19C
330
153
330
154
 92
       16
 93
        3
 72
     1
 10
99.32647547609449
 20
333.3763880633011
 11
99.92680595047699
 21
333.3763880633011
 72
     1
 10
99.92680595047699
 20
333.3763880633011
 11
99.62664071328689
 21
334.1442030292877
 72
     1
 10
99.62664071328689
 20
334.1442030292877
 11
99.32647547609449
 21
333.3763880633011
 97
        3
330
151
330
150
330
19E
 75
     1
 76
     0
 52
45.0
 41
0.1
 77
     0
 78
     1
 53
45.0
 43
0.0
 44
0.0
 45
-0.0707106781186548
 46
0.0707106781186548
 79
     0
 98
        1
 10
0.0
 20
0.0
  0
HATCH
  5
269
330
71
100
AcDbEntity
  8
1
  6
Continuous
 62
     2
100
AcDbHatch
 10
0.0
 20
0.0
 30
0.0
210
0.0
220
0.0
230
1.0
  2
_USER
 70
     0
 71
     1
 91
        2
 92
        1
 93
        8
 72
     1
 10
101.644845965353
 20
332.1548642537766
 11
100.4043415550991
 21
332.1548642537766
 72
     1
 10
100.4043415550991
 20
332.1548642537766
 11
100.1928615016233
 21
332.6958247979944
 72
     1
 10
100.1928615016233
 20
332.6958247979944
 11
99.06041992494949
 21
332.6958247979944
 72
     1
 10
99.06041992494949
 20
332.6958247979944
 11
98.84893987147368
 21
332.1548642537766
 72
     1
 10
98.84893987147368
 20
332.1548642537766
 11
97.6084354612207
 21
332.1548642537766
 72
     1
 10
97.6084354612207
 20
332.1548642537766
 11
99.00638850816
 21
335.2086737775877
 72
     1
 10
99.00638850816
 20
335.2086737775877
 11
100.2468929184127
 21
335.2086737775877
 72
     1
 10
100.2468929184127
 20
335.2086737775877
 11
101.644845965353
 21
332.1548642537766
 97
        8
330
19B
330
155
330
19A
330
19D
330
152
330
19C
330
153
330
154
 92
       16
 93
        3
 72
     1
 10
99.32647547609449
 20
333.3763880633011
 11
99.92680595047699
 21
333.3763880633011
 72
     1
 10
99.92680595047699
 20
333.3763880633011
 11
99.62664071328689
 21
334.1442030292877
 72
     1
 10
99.62664071328689
 20
334.1442030292877
 11
99.32647547609449
 21
333.3763880633011
 97
        3
330
151
330
150
330
19E
 75
     1
 76
     0
 52
45.0
 41
0.1
 77
     0
 78
     1
 53
45.0
 43
0.0
 44
0.0
 45
-0.0707106781186548
 46
0.0707106781186548
 79
     0
 98
        1
 10
0.0
 20
0.0
  0
HATCH
  5
26A
330
71
100
AcDbEntity
  8
1
  6
Continuous
 62
     2
100
AcDbHatch
 10
0.0
 20
0.0
 30
0.0
210
0.0
220
0.0
230
1.0
  2
_USER
 70
     0
 71
     1
 91
        1
 92
        1
 93
        8
 72
     1
 10
95.45092332203848
 20
335.2086737775877
 11
95.45092332203848
 21
334.4234084714641
 72
     1
 10
95.45092332203848
 20
334.4234084714641
 11
96.26202235951308
 21
334.4234084714641
 72
     1
 10
96.26202235951308
 20
334.4234084714641
 11
96.26202235951308
 21
332.1548642537766
 72
     1
 10
96.26202235951308
 20
332.1548642537766
 11
97.4548150616796
 21
332.1548642537766
 72
     1
 10
97.4548150616796
 20
332.1548642537766
 11
97.4548150616796
 21
334.4234084714641
 72
     1
 10
97.4548150616796
 20
334.4234084714641
 11
98.2659140991521
 21
334.4234084714641
 72
     1
 10
98.2659140991521
 20
334.4234084714641
 11
98.2659140991521
 21
335.2086737775877
 72
     1
 10
98.2659140991521
 20
335.2086737775877
 11
95.45092332203848
 21
335.2086737775877
 97
        8
330
197
330
196
330
195
330
156
330
157
330
199
330
158
330
198
 75
     1
 76
     0
 52
45.0
 41
0.1
 77
     0
 78
     1
 53
45.0
 43
0.0
 44
0.0
 45
-0.0707106781186548
 46
0.0707106781186548
 79
     0
 98
        1
 10
0.0
 20
0.0
  0
HATCH
  5
26B
330
71
100
AcDbEntity
  8
1
  6
Continuous
 62
     2
100
AcDbHatch
 10
0.0
 20
0.0
 30
0.0
210
0.0
220
0.0
230
1.0
  2
_USER
 70
     0
 71
     1
 91
        1
 92
        1
 93
        8
 72
     1
 10
95.45092332203848
 20
335.2086737775877
 11
95.45092332203848
 21
334.4234084714641
 72
     1
 10
95.45092332203848
 20
334.4234084714641
 11
96.26202235951308
 21
334.4234084714641
 72
     1
 10
96.26202235951308
 20
334.4234084714641
 11
96.26202235951308
 21
332.1548642537766
 72
     1
 10
96.26202235951308
 20
332.1548642537766
 11
97.4548150616796
 21
332.1548642537766
 72
     1
 10
97.4548150616796
 20
332.1548642537766
 11
97.4548150616796
 21
334.4234084714641
 72
     1
 10
97.4548150616796
 20
334.4234084714641
 11
98.2659140991521
 21
334.4234084714641
 72
     1
 10
98.2659140991521
 20
334.4234084714641
 11
98.2659140991521
 21
335.2086737775877
 72
     1
 10
98.2659140991521
 20
335.2086737775877
 11
95.45092332203848
 21
335.2086737775877
 97
        8
330
197
330
196
330
195
330
156
330
157
330
199
330
158
330
198
 75
     1
 76
     0
 52
45.0
 41
0.1
 77
     0
 78
     1
 53
45.0
 43
0.0
 44
0.0
 45
-0.0707106781186548
 46
0.0707106781186548
 79
     0
 98
        1
 10
0.0
 20
0.0
  0
HATCH
  5
26C
330
71
100
AcDbEntity
  8
1
  6
Continuous
 62
     2
100
AcDbHatch
 10
0.0
 20
0.0
 30
0.0
210
0.0
220
0.0
230
1.0
  2
_USER
 70
     0
 71
     1
 91
        1
 92
        1
 93
       10
 72
     1
 10
98.1229299057776
 20
338.5678642537621
 11
96.93013720361108
 21
338.5678642537621
 72
     1
 10
96.93013720361108
 20
338.5678642537621
 11
96.93013720361108
 21
335.5140547299509
 72
     1
 10
96.93013720361108
 20
335.5140547299509
 11
98.1229299057776
 21
335.5140547299509
 72
     1
 10
98.1229299057776
 20
335.5140547299509
 11
98.1229299057776
 21
336.8228302401556
 72
     1
 10
98.1229299057776
 20
336.8228302401556
 11
99.3634343160316
 21
335.5140547299509
 72
     1
 10
99.3634343160316
 20
335.5140547299509
 11
100.5562270181982
 21
335.5140547299509
 72
     1
 10
100.5562270181982
 20
335.5140547299509
 11
100.5562270181982
 21
338.5678642537621
 72
     1
 10
100.5562270181982
 20
338.5678642537621
 11
99.3634343160316
 21
338.5678642537621
 72
     1
 10
99.3634343160316
 20
338.5678642537621
 11
99.3634343160316
 21
337.2590887435568
 72
     1
 10
99.3634343160316
 20
337.2590887435568
 11
98.1229299057776
 21
338.5678642537621
 97
       10
330
191
330
15B
330
15C
330
15D
330
15E
330
194
330
159
330
193
330
192
330
15A
 75
     1
 76
     0
 52
45.0
 41
0.1
 77
     0
 78
     1
 53
45.0
 43
0.0
 44
0.0
 45
-0.0707106781186548
 46
0.0707106781186548
 79
     0
 98
        1
 10
0.0
 20
0.0
  0
HATCH
  5
26D
330
71
100
AcDbEntity
  8
1
  6
Continuous
 62
     2
100
AcDbHatch
 10
0.0
 20
0.0
 30
0.0
210
0.0
220
0.0
230
1.0
  2
_USER
 70
     0
 71
     1
 91
        1
 92
        1
 93
       10
 72
     1
 10
98.1229299057776
 20
338.5678642537621
 11
96.93013720361108
 21
338.5678642537621
 72
     1
 10
96.93013720361108
 20
338.5678642537621
 11
96.93013720361108
 21
335.5140547299509
 72
     1
 10
96.93013720361108
 20
335.5140547299509
 11
98.1229299057776
 21
335.5140547299509
 72
     1
 10
98.1229299057776
 20
335.5140547299509
 11
98.1229299057776
 21
336.8228302401556
 72
     1
 10
98.1229299057776
 20
336.8228302401556
 11
99.3634343160316
 21
335.5140547299509
 72
     1
 10
99.3634343160316
 20
335.5140547299509
 11
100.5562270181982
 21
335.5140547299509
 72
     1
 10
100.5562270181982
 20
335.5140547299509
 11
100.5562270181982
 21
338.5678642537621
 72
     1
 10
100.5562270181982
 20
338.5678642537621
 11
99.3634343160316
 21
338.5678642537621
 72
     1
 10
99.3634343160316
 20
338.5678642537621
 11
99.3634343160316
 21
337.2590887435568
 72
     1
 10
99.3634343160316
 20
337.2590887435568
 11
98.1229299057776
 21
338.5678642537621
 97
       10
330
191
330
15B
330
15C
330
15D
330
15E
330
194
330
159
330
193
330
192
330
15A
 75
     1
 76
     0
 52
45.0
 41
0.1
 77
     0
 78
     1
 53
45.0
 43
0.0
 44
0.0
 45
-0.0707106781186548
 46
0.0707106781186548
 79
     0
 98
        1
 10
0.0
 20
0.0
  0
HATCH
  5
26E
330
71
100
AcDbEntity
  8
1
  6
Continuous
 62
     2
100
AcDbHatch
 10
0.0
 20
0.0
 30
0.0
210
0.0
220
0.0
230
1.0
  2
_USER
 70
     0
 71
     1
 91
        1
 92
        1
 93
       10
 72
     1
 10
92.87449108535898
 20
335.2086737775877
 11
91.68169838319139
 21
335.2086737775877
 72
     1
 10
91.68169838319139
 20
335.2086737775877
 11
91.68169838319139
 21
332.1548642537766
 72
     1
 10
91.68169838319139
 20
332.1548642537766
 11
92.87449108535898
 21
332.1548642537766
 72
     1
 10
92.87449108535898
 20
332.1548642537766
 11
92.87449108535898
 21
333.4636397639812
 72
     1
 10
92.87449108535898
 20
333.4636397639812
 11
94.11499549561188
 21
332.1548642537766
 72
     1
 10
94.11499549561188
 20
332.1548642537766
 11
95.30778819777828
 21
332.1548642537766
 72
     1
 10
95.30778819777828
 20
332.1548642537766
 11
95.30778819777828
 21
335.2086737775877
 72
     1
 10
95.30778819777828
 20
335.2086737775877
 11
94.11499549561188
 21
335.2086737775877
 72
     1
 10
94.11499549561188
 20
335.2086737775877
 11
94.11499549561188
 21
333.8998982673826
 72
     1
 10
94.11499549561188
 20
333.8998982673826
 11
92.87449108535898
 21
335.2086737775877
 97
       10
330
160
330
161
330
162
330
18E
330
163
330
164
330
18D
330
190
330
18F
330
15F
 75
     1
 76
     0
 52
45.0
 41
0.1
 77
     0
 78
     1
 53
45.0
 43
0.0
 44
0.0
 45
-0.0707106781186548
 46
0.0707106781186548
 79
     0
 98
        1
 10
0.0
 20
0.0
  0
HATCH
  5
26F
330
71
100
AcDbEntity
  8
1
  6
Continuous
 62
     2
100
AcDbHatch
 10
0.0
 20
0.0
 30
0.0
210
0.0
220
0.0
230
1.0
  2
_USER
 70
     0
 71
     1
 91
        1
 92
        1
 93
       10
 72
     1
 10
92.87449108535898
 20
335.2086737775877
 11
91.68169838319139
 21
335.2086737775877
 72
     1
 10
91.68169838319139
 20
335.2086737775877
 11
91.68169838319139
 21
332.1548642537766
 72
     1
 10
91.68169838319139
 20
332.1548642537766
 11
92.87449108535898
 21
332.1548642537766
 72
     1
 10
92.87449108535898
 20
332.1548642537766
 11
92.87449108535898
 21
333.4636397639812
 72
     1
 10
92.87449108535898
 20
333.4636397639812
 11
94.11499549561188
 21
332.1548642537766
 72
     1
 10
94.11499549561188
 20
332.1548642537766
 11
95.30778819777828
 21
332.1548642537766
 72
     1
 10
95.30778819777828
 20
332.1548642537766
 11
95.30778819777828
 21
335.2086737775877
 72
     1
 10
95.30778819777828
 20
335.2086737775877
 11
94.11499549561188
 21
335.2086737775877
 72
     1
 10
94.11499549561188
 20
335.2086737775877
 11
94.11499549561188
 21
333.8998982673826
 72
     1
 10
94.11499549561188
 20
333.8998982673826
 11
92.87449108535898
 21
335.2086737775877
 97
       10
330
160
330
161
330
162
330
18E
330
163
330
164
330
18D
330
190
330
18F
330
15F
 75
     1
 76
     0
 52
45.0
 41
0.1
 77
     0
 78
     1
 53
45.0
 43
0.0
 44
0.0
 45
-0.0707106781186548
 46
0.0707106781186548
 79
     0
 98
        1
 10
0.0
 20
0.0
  0
HATCH
  5
270
330
71
100
AcDbEntity
  8
1
  6
Continuous
 62
     2
100
AcDbHatch
 10
0.0
 20
0.0
 30
0.0
210
0.0
220
0.0
230
1.0
  2
_USER
 70
     0
 71
     1
 91
        1
 92
        1
 93
       12
 72
     1
 10
91.87269614642358
 20
338.5678642537621
 11
91.87269614642358
 21
335.5140547299509
 72
     1
 10
91.87269614642358
 20
335.5140547299509
 11
90.67990344425718
 21
335.5140547299509
 72
     1
 10
90.67990344425718
 20
335.5140547299509
 11
90.67990344425718
 21
336.6483268387947
 72
     1
 10
90.67990344425718
 20
336.6483268387947
 11
89.6302458663497
 21
336.6483268387947
 72
     1
 10
89.6302458663497
 20
336.6483268387947
 11
89.6302458663497
 21
335.5140547299509
 72
     1
 10
89.6302458663497
 20
335.5140547299509
 11
88.4374531641831
 21
335.5140547299509
 72
     1
 10
88.4374531641831
 20
335.5140547299509
 11
88.4374531641831
 21
338.5678642537621
 72
     1
 10
88.4374531641831
 20
338.5678642537621
 11
89.6302458663497
 21
338.5678642537621
 72
     1
 10
89.6302458663497
 20
338.5678642537621
 11
89.6302458663497
 21
337.4990309204275
 72
     1
 10
89.6302458663497
 20
337.4990309204275
 11
90.67990344425718
 21
337.4990309204275
 72
     1
 10
90.67990344425718
 20
337.4990309204275
 11
90.67990344425718
 21
338.5678642537621
 72
     1
 10
90.67990344425718
 20
338.5678642537621
 11
91.87269614642358
 21
338.5678642537621
 97
       12
330
188
330
187
330
186
330
16E
330
16F
330
185
330
170
330
184
330
183
330
182
330
16C
330
16D
 75
     1
 76
     0
 52
45.0
 41
0.1
 77
     0
 78
     1
 53
45.0
 43
0.0
 44
0.0
 45
-0.0707106781186548
 46
0.0707106781186548
 79
     0
 98
        1
 10
0.0
 20
0.0
  0
HATCH
  5
271
330
71
100
AcDbEntity
  8
1
  6
Continuous
 62
     2
100
AcDbHatch
 10
0.0
 20
0.0
 30
0.0
210
0.0
220
0.0
230
1.0
  2
_USER
 70
     0
 71
     1
 91
        1
 92
        1
 93
       12
 72
     1
 10
91.87269614642358
 20
338.5678642537621
 11
91.87269614642358
 21
335.5140547299509
 72
     1
 10
91.87269614642358
 20
335.5140547299509
 11
90.67990344425718
 21
335.5140547299509
 72
     1
 10
90.67990344425718
 20
335.5140547299509
 11
90.67990344425718
 21
336.6483268387947
 72
     1
 10
90.67990344425718
 20
336.6483268387947
 11
89.6302458663497
 21
336.6483268387947
 72
     1
 10
89.6302458663497
 20
336.6483268387947
 11
89.6302458663497
 21
335.5140547299509
 72
     1
 10
89.6302458663497
 20
335.5140547299509
 11
88.4374531641831
 21
335.5140547299509
 72
     1
 10
88.4374531641831
 20
335.5140547299509
 11
88.4374531641831
 21
338.5678642537621
 72
     1
 10
88.4374531641831
 20
338.5678642537621
 11
89.6302458663497
 21
338.5678642537621
 72
     1
 10
89.6302458663497
 20
338.5678642537621
 11
89.6302458663497
 21
337.4990309204275
 72
     1
 10
89.6302458663497
 20
337.4990309204275
 11
90.67990344425718
 21
337.4990309204275
 72
     1
 10
90.67990344425718
 20
337.4990309204275
 11
90.67990344425718
 21
338.5678642537621
 72
     1
 10
90.67990344425718
 20
338.5678642537621
 11
91.87269614642358
 21
338.5678642537621
 97
       12
330
188
330
187
330
186
330
16E
330
16F
330
185
330
170
330
184
330
183
330
182
330
16C
330
16D
 75
     1
 76
     0
 52
45.0
 41
0.1
 77
     0
 78
     1
 53
45.0
 43
0.0
 44
0.0
 45
-0.0707106781186548
 46
0.0707106781186548
 79
     0
 98
        1
 10
0.0
 20
0.0
  0
ENDBLK
  5
73
330
71
100
AcDbEntity
  8
0
100
AcDbBlockEnd
  0
BLOCK
  5
75
330
74
100
AcDbEntity
  8
0
100
AcDbBlockBegin
  2
_punkt
 70
     0
 10
203.7499999602125
 20
324.8613642537603
 30
0.0
  3
_punkt
  1

  0
LINE
  5
272
330
74
100
AcDbEntity
  8
1
  6
Continuous
 62
     2
100
AcDbLine
 10
203.7499999602125
 20
324.8613642537603
 30
0.0
 11
203.7499999602125
 21
319.8613642537601
 31
0.0
  0
LINE
  5
273
330
74
100
AcDbEntity
  8
1
  6
Continuous
 62
     2
100
AcDbLine
 10
203.7499999602125
 20
324.8613642537603
 30
0.0
 11
208.7499999602115
 21
324.8613642537603
 31
0.0
  0
ENDBLK
  5
76
330
74
100
AcDbEntity
  8
0
100
AcDbBlockEnd
  0
BLOCK
  5
7A
330
77
100
AcDbEntity
  8
0
100
AcDbBlockBegin
  2
A4I_CS
 70
     0
 10
203.7499999602125
 20
319.8613642537601
 30
0.0
  3
A4I_CS
  1

  0
INSERT
  5
78
330
77
100
AcDbEntity
  8
1
100
AcDbBlockReference
  2
_rahmen
 10
203.7499999602125
 20
319.8613642537601
 30
0.0
  0
INSERT
  5
79
330
77
100
AcDbEntity
  8
1
100
AcDbBlockReference
  2
_punkt
 10
203.7499999602125
 20
324.8613642537603
 30
0.0
  0
ENDBLK
  5
7B
330
77
100
AcDbEntity
  8
0
100
AcDbBlockEnd
  0
BLOCK
  5
84
330
7C
100
AcDbEntity
  8
0
100
AcDbBlockBegin
  2
1
 70
     0
 10
0.0
 20
0.0
 30
0.0
  3
1
  1

  0
INSERT
  5
7D
330
7C
100
AcDbEntity
  8
0
100
AcDbBlockReference
  2
Gen1
 10
134.9999999999998
 20
404.0
 30
0.0
  0
INSERT
  5
7E
330
7C
100
AcDbEntity
  8
0
100
AcDbBlockReference
  2
Drfsicht1
 10
15.0
 20
408.0000000000099
 30
0.0
  0
INSERT
  5
7F
330
7C
100
AcDbEntity
  8
0
100
AcDbBlockReference
  2
Rckans1
 10
139.5000000000001
 20
466.1000005006791
 30
0.0
  0
INSERT
  5
80
330
7C
100
AcDbEntity
  8
0
100
AcDbBlockReference
  2
SA_Links1
 10
77.24999999999423
 20
466.100000500679
 30
0.0
  0
INSERT
  5
81
330
7C
100
AcDbEntity
  8
0
100
AcDbBlockReference
  2
SA_Rechts1
 10
-62.24999999999012
 20
466.1000005006791
 30
0.0
  0
INSERT
  5
82
330
7C
100
AcDbEntity
  8
0
100
AcDbBlockReference
  2
Vordans1
 10
15.0
 20
466.100000500679
 30
0.0
  0
INSERT
  5
83
330
7C
100
AcDbEntity
  8
0
100
AcDbBlockReference
  2
A4I_CS
 10
203.7499999602125
 20
319.8613642537601
 30
0.0
  0
ENDBLK
  5
85
330
7C
100
AcDbEntity
  8
0
100
AcDbBlockEnd
  0
BLOCK
  5
DC
330
D3
100
AcDbEntity
  8
0
100
AcDbBlockBegin
  2
*D17
 70
     1
 10
0.0
 20
0.0
 30
0.0
  3
*D17
  1

  0
LINE
  5
D4
330
D3
100
AcDbEntity
  8
1
  6
Continuous
 62
     2
100
AcDbLine
 10
-40.7537096459494
 20
406.9000000238567
 30
0.0
 11
-40.7537096459494
 21
399.9000000238567
 31
0.0
  0
LINE
  5
D5
330
D3
100
AcDbEntity
  8
1
  6
Continuous
 62
     2
100
AcDbLine
 10
-40.7537096459494
 20
409.1000000238567
 30
0.0
 11
-40.7537096459494
 21
406.9000000238567
 31
0.0
  0
LINE
  5
D6
330
D3
100
AcDbEntity
  8
1
  6
Continuous
 62
     2
100
AcDbLine
 10
-40.7537096459494
 20
416.1000000238567
 30
0.0
 11
-40.7537096459494
 21
409.1000000238567
 31
0.0
  0
LINE
  5
D7
330
D3
100
AcDbEntity
  8
1
  6
Continuous
 62
     2
100
AcDbLine
 10
-30.7499999204149
 20
406.9000000238567
 30
0.0
 11
-42.2537096459494
 21
406.9000000238567
 31
0.0
  0
LINE
  5
D8
330
D3
100
AcDbEntity
  8
1
  6
Continuous
 62
     2
100
AcDbLine
 10
-30.7499999204149
 20
409.1000000238567
 30
0.0
 11
-42.2537096459494
 21
409.1000000238567
 31
0.0
  0
SOLID
  5
D9
330
D3
100
AcDbEntity
  8
1
 62
     2
100
AcDbTrace
 10
-41.21449338750529
 20
412.6000000238567
 30
0.0
 11
-40.29292590439351
 21
412.6000000238567
 31
0.0
 12
-40.7537096459494
 22
409.1000000238567
 32
0.0
 13
-40.7537096459494
 23
409.1000000238567
 33
0.0
  0
SOLID
  5
DA
330
D3
100
AcDbEntity
  8
1
 62
     2
100
AcDbTrace
 10
-40.29292590439351
 20
403.4000000238567
 30
0.0
 11
-41.21449338750529
 21
403.4000000238567
 31
0.0
 12
-40.7537096459494
 22
406.9000000238567
 32
0.0
 13
-40.7537096459494
 23
406.9000000238567
 33
0.0
  0
MTEXT
  5
DB
330
D3
100
AcDbEntity
  8
1
 62
     3
100
AcDbMText
 10
-43.10370964594939
 20
404.653101516831
 30
0.0
 40
3.5
 41
0.0
 71
     7
 72
     1
  1
2,2
  7
CONVERTER_11
 11
0.0
 21
1.0
 31
0.0
 73
     1
 44
0.60024009603842
  0
ENDBLK
  5
DD
330
D3
100
AcDbEntity
  8
0
100
AcDbBlockEnd
  0
BLOCK
  5
12C
330
125
100
AcDbEntity
  8
0
100
AcDbBlockBegin
  2
*D18
 70
     1
 10
0.0
 20
0.0
 30
0.0
  3
*D18
  1

  0
LINE
  5
126
330
125
100
AcDbEntity
  8
1
  6
Continuous
 62
     2
100
AcDbLine
 10
-42.28980569106842
 20
448.1000001709962
 30
0.0
 11
-42.28980569106842
 21
484.1000001709986
 31
0.0
  0
LINE
  5
127
330
125
100
AcDbEntity
  8
1
  6
Continuous
 62
     2
100
AcDbLine
 10
4.16849979889263
 20
484.1000001709986
 30
0.0
 11
-44.28980569106842
 21
484.1000001709986
 31
0.0
  0
LINE
  5
128
330
125
100
AcDbEntity
  8
1
  6
Continuous
 62
     2
100
AcDbLine
 10
-30.24999992041489
 20
448.1000001709962
 30
0.0
 11
-44.28980569106842
 21
448.1000001709962
 31
0.0
  0
SOLID
  5
129
330
125
100
AcDbEntity
  8
1
 62
     2
100
AcDbTrace
 10
-42.75058943262431
 20
451.6000001709962
 30
0.0
 11
-41.82902194951254
 21
451.6000001709962
 31
0.0
 12
-42.28980569106842
 22
448.1000001709962
 32
0.0
 13
-42.28980569106842
 23
448.1000001709962
 33
0.0
  0
SOLID
  5
12A
330
125
100
AcDbEntity
  8
1
 62
     2
100
AcDbTrace
 10
-41.82902194951254
 20
480.6000001709986
 30
0.0
 11
-42.75058943262431
 21
480.6000001709986
 31
0.0
 12
-42.28980569106842
 22
484.1000001709986
 32
0.0
 13
-42.28980569106842
 23
484.1000001709986
 33
0.0
  0
MTEXT
  5
12B
330
125
100
AcDbEntity
  8
1
 62
     3
100
AcDbMText
 10
-44.28980569106842
 20
464.2519739739779
 30
0.0
 40
3.5
 41
0.0
 71
     7
 72
     1
  1
36
  7
CONVERTER_11
 11
0.0
 21
1.0
 31
0.0
 73
     1
 44
0.60024009603842
  0
ENDBLK
  5
12D
330
125
100
AcDbEntity
  8
0
100
AcDbBlockEnd
  0
BLOCK
  5
137
330
130
100
AcDbEntity
  8
0
100
AcDbBlockBegin
  2
*D19
 70
     1
 10
0.0
 20
0.0
 30
0.0
  3
*D19
  1

  0
LINE
  5
131
330
130
100
AcDbEntity
  8
1
  6
Continuous
 62
     2
100
AcDbLine
 10
-30.24999992041489
 20
431.1271278153303
 30
0.0
 11
60.25000007958582
 21
431.1271278153303
 31
0.0
  0
LINE
  5
132
330
130
100
AcDbEntity
  8
1
  6
Continuous
 62
     2
100
AcDbLine
 10
60.25000007958582
 20
448.7170214475932
 30
0.0
 11
60.25000007958582
 21
429.1271278153303
 31
0.0
  0
LINE
  5
133
330
130
100
AcDbEntity
  8
1
  6
Continuous
 62
     2
100
AcDbLine
 10
-30.2499999204149
 20
448.1000001709963
 30
0.0
 11
-30.2499999204149
 21
429.1271278153303
 31
0.0
  0
SOLID
  5
134
330
130
100
AcDbEntity
  8
1
 62
     2
100
AcDbTrace
 10
-26.74999992041489
 20
431.5879115568862
 30
0.0
 11
-26.74999992041489
 21
430.6663440737744
 31
0.0
 12
-30.24999992041489
 22
431.1271278153303
 32
0.0
 13
-30.24999992041489
 23
431.1271278153303
 33
0.0
  0
SOLID
  5
135
330
130
100
AcDbEntity
  8
1
 62
     2
100
AcDbTrace
 10
56.75000007958582
 20
430.6663440737744
 30
0.0
 11
56.75000007958582
 21
431.5879115568862
 31
0.0
 12
60.25000007958582
 22
431.1271278153303
 32
0.0
 13
60.25000007958582
 23
431.1271278153303
 33
0.0
  0
MTEXT
  5
136
330
130
100
AcDbEntity
  8
1
 62
     3
100
AcDbMText
 10
10.18750000000011
 20
433.4771278153303
 30
0.0
 40
3.5
 41
0.0
 71
     7
 72
     1
  1
90,5
  7
CONVERTER_11
 11
0.9999999999970619
 21
2.424068405545306E-6
 31
0.0
 73
     1
 44
0.60024009603842
  0
ENDBLK
  5
138
330
130
100
AcDbEntity
  8
0
100
AcDbBlockEnd
  0
ENDSEC
  0
SECTION
  2
ENTITIES
  0
INSERT
  5
86
330
1F
100
AcDbEntity
  8
1
100
AcDbBlockReference
  2
1
 10
0.0
 20
0.0
 30
0.0
  0
ENDSEC
  0
SECTION
  2
OBJECTS
  0
DICTIONARY
  5
C
330
0
100
AcDbDictionary
281
     1
  3
ACAD_GROUP
350
D
  3
ACAD_LAYOUT
350
1A
  3
ACAD_MATERIAL
350
3B
  3
ACAD_MLEADERSTYLE
350
29B
  3
ACAD_MLINESTYLE
350
17
  3
ACAD_PLOTSETTINGS
350
19
  3
ACAD_PLOTSTYLENAME
350
E
  3
ACAD_TABLESTYLE
350
29A
  3
ACAD_VISUALSTYLE
350
2A
  0
DICTIONARY
  5
D
102
{ACAD_REACTORS
330
C
102
}
330
C
100
AcDbDictionary
281
     1
  0
DICTIONARY
  5
1A
102
{ACAD_REACTORS
330
C
102
}
330
C
100
AcDbDictionary
281
     1
  3
Layout1
350
1E
  3
Layout2
350
26
  3
Model
350
22
  0
DICTIONARY
  5
3B
102
{ACAD_REACTORS
330
C
102
}
330
C
100
AcDbDictionary
281
     1
  3
ByBlock
350
3D
  3
ByLayer
350
3C
  3
Global
350
3E
  0
DICTIONARY
  5
29B
102
{ACAD_REACTORS
330
C
102
}
330
C
100
AcDbDictionary
281
     1
  0
DICTIONARY
  5
17
102
{ACAD_REACTORS
330
C
102
}
330
C
100
AcDbDictionary
281
     1
  3
Standard
350
18
  0
DICTIONARY
  5
19
102
{ACAD_REACTORS
330
C
102
}
330
C
100
AcDbDictionary
281
     1
  0
ACDBDICTIONARYWDFLT
  5
E
102
{ACAD_REACTORS
330
C
102
}
330
C
100
AcDbDictionary
281
     1
  3
Normal
350
F
100
AcDbDictionaryWithDefault
340
F
  0
DICTIONARY
  5
29A
102
{ACAD_REACTORS
330
C
102
}
330
C
100
AcDbDictionary
281
     1
  0
DICTIONARY
  5
2A
102
{ACAD_REACTORS
330
C
102
}
330
C
100
AcDbDictionary
281
     1
  3
2dWireframe
350
2F
  3
3D Hidden
350
31
  3
3dWireframe
350
30
  3
Basic
350
32
  3
Brighten
350
36
  3
ColorChange
350
3A
  3
Conceptual
350
34
  3
Dim
350
35
  3
Facepattern
350
39
  3
Flat
350
2B
  3
FlatWithEdges
350
2C
  3
Gouraud
350
2D
  3
GouraudWithEdges
350
2E
  3
Linepattern
350
38
  3
Realistic
350
33
  3
Thicken
350
37
  0
LAYOUT
  5
1E
102
{ACAD_REACTORS
330
1A
102
}
330
1A
100
AcDbPlotSettings
  1

  2
none_device
  4

  6

 40
0.0
 41
0.0
 42
0.0
 43
0.0
 44
0.0
 45
0.0
 46
0.0
 47
0.0
 48
0.0
 49
0.0
140
0.0
141
0.0
142
1.0
143
1.0
 70
   688
 72
     0
 73
     0
 74
     5
  7

 75
    16
 76
     0
 77
     2
 78
   300
147
1.0
148
0.0
149
0.0
100
AcDbLayout
  1
Layout1
 70
     1
 71
     1
 10
0.0
 20
0.0
 11
12.0
 21
9.0
 12
0.0
 22
0.0
 32
0.0
 14
1.00000000000000E+20
 24
1.00000000000000E+20
 34
1.00000000000000E+20
 15
-1.00000000000000E+20
 25
-1.00000000000000E+20
 35
-1.00000000000000E+20
146
0.0
 13
0.0
 23
0.0
 33
0.0
 16
1.0
 26
0.0
 36
0.0
 17
0.0
 27
1.0
 37
0.0
 76
     0
330
1B
  0
LAYOUT
  5
26
102
{ACAD_REACTORS
330
1A
102
}
330
1A
100
AcDbPlotSettings
  1

  2
none_device
  4

  6

 40
0.0
 41
0.0
 42
0.0
 43
0.0
 44
0.0
 45
0.0
 46
0.0
 47
0.0
 48
0.0
 49
0.0
140
0.0
141
0.0
142
1.0
143
1.0
 70
   688
 72
     0
 73
     0
 74
     5
  7

 75
    16
 76
     0
 77
     2
 78
   300
147
1.0
148
0.0
149
0.0
100
AcDbLayout
  1
Layout2
 70
     1
 71
     2
 10
0.0
 20
0.0
 11
0.0
 21
0.0
 12
0.0
 22
0.0
 32
0.0
 14
0.0
 24
0.0
 34
0.0
 15
0.0
 25
0.0
 35
0.0
146
0.0
 13
0.0
 23
0.0
 33
0.0
 16
1.0
 26
0.0
 36
0.0
 17
0.0
 27
1.0
 37
0.0
 76
     0
330
23
  0
LAYOUT
  5
22
102
{ACAD_REACTORS
330
1A
102
}
330
1A
100
AcDbPlotSettings
  1

  2
none_device
  4

  6

 40
0.0
 41
0.0
 42
0.0
 43
0.0
 44
0.0
 45
0.0
 46
0.0
 47
0.0
 48
0.0
 49
0.0
140
0.0
141
0.0
142
1.0
143
1.0
 70
  1712
 72
     0
 73
     0
 74
     0
  7

 75
     0
 76
     0
 77
     2
 78
   300
147
1.0
148
0.0
149
0.0
100
AcDbLayout
  1
Model
 70
     1
 71
     0
 10
0.0
 20
0.0
 11
12.0
 21
9.0
 12
0.0
 22
0.0
 32
0.0
 14
-88.25000003978658
 24
319.8613642537601
 34
0.0
 15
208.7499999602115
 25
529.8613642537603
 35
0.0
146
0.0
 13
0.0
 23
0.0
 33
0.0
 16
1.0
 26
0.0
 36
0.0
 17
0.0
 27
1.0
 37
0.0
 76
     0
330
1F
331
29
  0
MATERIAL
  5
3D
102
{ACAD_REACTORS
330
3B
102
}
102
{ACAD_XDICTIONARY
360
296
102
}
330
3B
100
AcDbMaterial
  1
ByBlock
  0
MATERIAL
  5
3C
102
{ACAD_REACTORS
330
3B
102
}
102
{ACAD_XDICTIONARY
360
294
102
}
330
3B
100
AcDbMaterial
  1
ByLayer
  0
MATERIAL
  5
3E
102
{ACAD_REACTORS
330
3B
102
}
102
{ACAD_XDICTIONARY
360
298
102
}
330
3B
100
AcDbMaterial
  1
Global
  0
MLINESTYLE
  5
18
102
{ACAD_REACTORS
330
17
102
}
330
17
100
AcDbMlineStyle
  2
Standard
 70
     0
  3

 62
   256
 51
90.0
 52
90.0
 71
     2
 49
0.5
 62
   256
  6
BYLAYER
 49
-0.5
 62
   256
  6
BYLAYER
  0
ACDBPLACEHOLDER
  5
F
102
{ACAD_REACTORS
330
E
102
}
330
E
  0
VISUALSTYLE
  5
2F
102
{ACAD_REACTORS
330
2A
102
}
102
{ACAD_XDICTIONARY
360
27C
102
}
330
2A
100
AcDbVisualStyle
  2
2dWireframe
 70
     4
 71
     0
 72
     2
 73
     0
 90
        0
 40
-0.6
 41
-30.0
 62
     5
 63
     7
421
 16777215
 74
     1
 91
        4
 64
     7
 65
   257
 75
     1
175
     1
 42
1.0
 92
        0
 66
   257
 43
1.0
 76
     1
 77
     6
 78
     2
 67
     7
 79
     5
170
     0
171
     0
290
     0
174
     0
 93
        1
 44
0.0
173
     0
291
     0
 45
0.0
1001
ACAD
1000
AcDbSavedByObjectVersion
1070
     0
  0
VISUALSTYLE
  5
31
102
{ACAD_REACTORS
330
2A
102
}
102
{ACAD_XDICTIONARY
360
280
102
}
330
2A
100
AcDbVisualStyle
  2
3D Hidden
 70
     6
 71
     1
 72
     2
 73
     2
 90
        0
 40
-0.6
 41
-30.0
 62
     5
 63
     7
421
 16777215
 74
     2
 91
        2
 64
     7
 65
   257
 75
     2
175
     1
 42
40.0
 92
        0
 66
   257
 43
1.0
 76
     1
 77
     6
 78
     2
 67
     7
 79
     3
170
     0
171
     0
290
     0
174
     0
 93
        1
 44
0.0
173
     0
291
     0
 45
0.0
1001
ACAD
1000
AcDbSavedByObjectVersion
1070
     0
  0
VISUALSTYLE
  5
30
102
{ACAD_REACTORS
330
2A
102
}
102
{ACAD_XDICTIONARY
360
27E
102
}
330
2A
100
AcDbVisualStyle
  2
3dWireframe
 70
     5
 71
     0
 72
     2
 73
     0
 90
        0
 40
-0.6
 41
-30.0
 62
     5
 63
     7
421
 16777215
 74
     1
 91
        4
 64
     7
 65
   257
 75
     1
175
     1
 42
1.0
 92
        0
 66
   257
 43
1.0
 76
     1
 77
     6
 78
     2
 67
     7
 79
     5
170
     0
171
     0
290
     0
174
     0
 93
        1
 44
0.0
173
     0
291
     0
 45
0.0
1001
ACAD
1000
AcDbSavedByObjectVersion
1070
     0
  0
VISUALSTYLE
  5
32
102
{ACAD_REACTORS
330
2A
102
}
102
{ACAD_XDICTIONARY
360
282
102
}
330
2A
100
AcDbVisualStyle
  2
Basic
 70
     7
 71
     1
 72
     0
 73
     1
 90
        0
 40
-0.6
 41
-30.0
 62
     5
 63
     7
421
 16777215
 74
     0
 91
        4
 64
     7
 65
   257
 75
     1
175
     1
 42
1.0
 92
        8
 66
     7
 43
1.0
 76
     1
 77
     6
 78
     2
 67
     7
 79
     5
170
     0
171
     0
290
     0
174
     0
 93
        1
 44
0.0
173
     0
291
     1
 45
0.0
1001
ACAD
1000
AcDbSavedByObjectVersion
1070
     0
  0
VISUALSTYLE
  5
36
102
{ACAD_REACTORS
330
2A
102
}
102
{ACAD_XDICTIONARY
360
28A
102
}
330
2A
100
AcDbVisualStyle
  2
Brighten
 70
    12
 71
     2
 72
     2
 73
     0
 90
        0
 40
-0.6
 41
-30.0
 62
     5
 63
     7
421
 16777215
 74
     1
 91
        4
 64
     7
 65
   257
 75
     1
175
     1
 42
1.0
 92
        8
 66
     7
 43
1.0
 76
     1
 77
     6
 78
     2
 67
     7
 79
     5
170
     0
171
     0
290
     0
174
     0
 93
        1
 44
50.0
173
     0
291
     1
 45
0.0
1001
ACAD
1000
AcDbSavedByObjectVersion
1070
     0
  0
VISUALSTYLE
  5
3A
102
{ACAD_REACTORS
330
2A
102
}
102
{ACAD_XDICTIONARY
360
292
102
}
330
2A
100
AcDbVisualStyle
  2
ColorChange
 70
    16
 71
     2
 72
     2
 73
     3
 90
        0
 40
-0.6
 41
-30.0
 62
     5
 63
     8
421
  8421504
 74
     1
 91
        4
 64
     7
 65
   257
 75
     1
175
     1
 42
1.0
 92
        8
 66
     8
424
  8421504
 43
1.0
 76
     1
 77
     6
 78
     2
 67
     7
 79
     5
170
     0
171
     0
290
     0
174
     0
 93
        1
 44
0.0
173
     0
291
     1
 45
0.0
1001
ACAD
1000
AcDbSavedByObjectVersion
1070
     0
  0
VISUALSTYLE
  5
34
102
{ACAD_REACTORS
330
2A
102
}
102
{ACAD_XDICTIONARY
360
286
102
}
330
2A
100
AcDbVisualStyle
  2
Conceptual
 70
     9
 71
     3
 72
     2
 73
     0
 90
        0
 40
-0.6
 41
-30.0
 62
     5
 63
     7
421
 16777215
 74
     2
 91
        2
 64
     7
 65
   257
 75
     1
175
     1
 42
40.0
 92
        8
 66
     7
 43
1.0
 76
     1
 77
     6
 78
     2
 67
     7
 79
     3
170
     0
171
     0
290
     0
174
     0
 93
        1
 44
0.0
173
     0
291
     0
 45
0.0
1001
ACAD
1000
AcDbSavedByObjectVersion
1070
     0
  0
VISUALSTYLE
  5
35
102
{ACAD_REACTORS
330
2A
102
}
102
{ACAD_XDICTIONARY
360
288
102
}
330
2A
100
AcDbVisualStyle
  2
Dim
 70
    11
 71
     2
 72
     2
 73
     0
 90
        0
 40
-0.6
 41
-30.0
 62
     5
 63
     7
421
 16777215
 74
     1
 91
        4
 64
     7
 65
   257
 75
     1
175
     1
 42
1.0
 92
        8
 66
     7
 43
1.0
 76
     1
 77
     6
 78
     2
 67
     7
 79
     5
170
     0
171
     0
290
     0
174
     0
 93
        1
 44
-50.0
173
     0
291
     1
 45
0.0
1001
ACAD
1000
AcDbSavedByObjectVersion
1070
     0
  0
VISUALSTYLE
  5
39
102
{ACAD_REACTORS
330
2A
102
}
102
{ACAD_XDICTIONARY
360
290
102
}
330
2A
100
AcDbVisualStyle
  2
Facepattern
 70
    15
 71
     2
 72
     2
 73
     0
 90
        0
 40
-0.6
 41
-30.0
 62
     5
 63
     7
421
 16777215
 74
     1
 91
        4
 64
     7
 65
   257
 75
     1
175
     1
 42
1.0
 92
        8
 66
     7
 43
1.0
 76
     1
 77
     6
 78
     2
 67
     7
 79
     5
170
     0
171
     0
290
     0
174
     0
 93
        1
 44
0.0
173
     0
291
     1
 45
0.0
1001
ACAD
1000
AcDbSavedByObjectVersion
1070
     0
  0
VISUALSTYLE
  5
2B
102
{ACAD_REACTORS
330
2A
102
}
102
{ACAD_XDICTIONARY
360
274
102
}
330
2A
100
AcDbVisualStyle
  2
Flat
 70
     0
 71
     2
 72
     1
 73
     1
 90
        2
 40
-0.6
 41
30.0
 62
     5
 63
     7
421
 16777215
 74
     0
 91
        4
 64
     7
 65
   257
 75
     1
175
     1
 42
1.0
 92
        8
 66
     7
 43
1.0
 76
     1
 77
     6
 78
     2
 67
     7
 79
     5
170
     0
171
     0
290
     0
174
     0
 93
       13
 44
0.0
173
     0
291
     1
 45
0.0
1001
ACAD
1000
AcDbSavedByObjectVersion
1070
     0
  0
VISUALSTYLE
  5
2C
102
{ACAD_REACTORS
330
2A
102
}
102
{ACAD_XDICTIONARY
360
276
102
}
330
2A
100
AcDbVisualStyle
  2
FlatWithEdges
 70
     1
 71
     2
 72
     1
 73
     1
 90
        2
 40
-0.6
 41
30.0
 62
     5
 63
     7
421
 16777215
 74
     1
 91
        4
 64
     7
 65
   257
 75
     1
175
     1
 42
1.0
 92
        0
 66
   257
 43
1.0
 76
     1
 77
     6
 78
     2
 67
     7
 79
     5
170
     0
171
     0
290
     0
174
     0
 93
       13
 44
0.0
173
     0
291
     1
 45
0.0
1001
ACAD
1000
AcDbSavedByObjectVersion
1070
     0
  0
VISUALSTYLE
  5
2D
102
{ACAD_REACTORS
330
2A
102
}
102
{ACAD_XDICTIONARY
360
278
102
}
330
2A
100
AcDbVisualStyle
  2
Gouraud
 70
     2
 71
     2
 72
     2
 73
     1
 90
        2
 40
-0.6
 41
30.0
 62
     5
 63
     7
421
 16777215
 74
     0
 91
        4
 64
     7
 65
   257
 75
     1
175
     1
 42
1.0
 92
        0
 66
     7
 43
1.0
 76
     1
 77
     6
 78
     2
 67
     7
 79
     5
170
     0
171
     0
290
     0
174
     0
 93
       13
 44
0.0
173
     0
291
     1
 45
0.0
1001
ACAD
1000
AcDbSavedByObjectVersion
1070
     0
  0
VISUALSTYLE
  5
2E
102
{ACAD_REACTORS
330
2A
102
}
102
{ACAD_XDICTIONARY
360
27A
102
}
330
2A
100
AcDbVisualStyle
  2
GouraudWithEdges
 70
     3
 71
     2
 72
     2
 73
     1
 90
        2
 40
-0.6
 41
30.0
 62
     5
 63
     7
421
 16777215
 74
     1
 91
        4
 64
     7
 65
   257
 75
     1
175
     1
 42
1.0
 92
        0
 66
   257
 43
1.0
 76
     1
 77
     6
 78
     2
 67
     7
 79
     5
170
     0
171
     0
290
     0
174
     0
 93
       13
 44
0.0
173
     0
291
     1
 45
0.0
1001
ACAD
1000
AcDbSavedByObjectVersion
1070
     0
  0
VISUALSTYLE
  5
38
102
{ACAD_REACTORS
330
2A
102
}
102
{ACAD_XDICTIONARY
360
28E
102
}
330
2A
100
AcDbVisualStyle
  2
Linepattern
 70
    14
 71
     2
 72
     2
 73
     0
 90
        0
 40
-0.6
 41
-30.0
 62
     5
 63
     7
421
 16777215
 74
     1
 91
        4
 64
     7
 65
   257
 75
     7
175
     7
 42
1.0
 92
        8
 66
     7
 43
1.0
 76
     1
 77
     6
 78
     2
 67
     7
 79
     5
170
     0
171
     0
290
     0
174
     0
 93
        1
 44
0.0
173
     0
291
     1
 45
0.0
1001
ACAD
1000
AcDbSavedByObjectVersion
1070
     0
  0
VISUALSTYLE
  5
33
102
{ACAD_REACTORS
330
2A
102
}
102
{ACAD_XDICTIONARY
360
284
102
}
330
2A
100
AcDbVisualStyle
  2
Realistic
 70
     8
 71
     2
 72
     2
 73
     0
 90
        0
 40
-0.6
 41
-30.0
 62
     5
 63
     7
421
 16777215
 74
     1
 91
        0
 64
     7
 65
   257
 75
     1
175
     1
 42
1.0
 92
        8
 66
     8
424
  7895160
 43
1.0
 76
     1
 77
     6
 78
     2
 67
     7
 79
     5
170
     0
171
     0
290
     0
174
     0
 93
       13
 44
0.0
173
     0
291
     0
 45
0.0
1001
ACAD
1000
AcDbSavedByObjectVersion
1070
     0
  0
VISUALSTYLE
  5
37
102
{ACAD_REACTORS
330
2A
102
}
102
{ACAD_XDICTIONARY
360
28C
102
}
330
2A
100
AcDbVisualStyle
  2
Thicken
 70
    13
 71
     2
 72
     2
 73
     0
 90
        0
 40
-0.6
 41
-30.0
 62
     5
 63
     7
421
 16777215
 74
     1
 91
        4
 64
     7
 65
   257
 75
     1
175
     1
 42
1.0
 92
       12
 66
     7
 43
1.0
 76
     1
 77
     6
 78
     2
 67
     7
 79
     5
170
     0
171
     0
290
     0
174
     0
 93
        1
 44
0.0
173
     0
291
     1
 45
0.0
1001
ACAD
1000
AcDbSavedByObjectVersion
1070
     0
  0
DICTIONARY
  5
296
330
3D
100
AcDbDictionary
280
     1
281
     1
  3
ACAD_XREC_ROUNDTRIP
360
297
  0
DICTIONARY
  5
294
330
3C
100
AcDbDictionary
280
     1
281
     1
  3
ACAD_XREC_ROUNDTRIP
360
295
  0
DICTIONARY
  5
298
330
3E
100
AcDbDictionary
280
     1
281
     1
  3
ACAD_XREC_ROUNDTRIP
360
299
  0
DICTIONARY
  5
27C
330
2F
100
AcDbDictionary
280
     1
281
     1
  3
ACAD_XREC_ROUNDTRIP
360
27D
  0
DICTIONARY
  5
280
330
31
100
AcDbDictionary
280
     1
281
     1
  3
ACAD_XREC_ROUNDTRIP
360
281
  0
DICTIONARY
  5
27E
330
30
100
AcDbDictionary
280
     1
281
     1
  3
ACAD_XREC_ROUNDTRIP
360
27F
  0
DICTIONARY
  5
282
330
32
100
AcDbDictionary
280
     1
281
     1
  3
ACAD_XREC_ROUNDTRIP
360
283
  0
DICTIONARY
  5
28A
330
36
100
AcDbDictionary
280
     1
281
     1
  3
ACAD_XREC_ROUNDTRIP
360
28B
  0
DICTIONARY
  5
292
330
3A
100
AcDbDictionary
280
     1
281
     1
  3
ACAD_XREC_ROUNDTRIP
360
293
  0
DICTIONARY
  5
286
330
34
100
AcDbDictionary
280
     1
281
     1
  3
ACAD_XREC_ROUNDTRIP
360
287
  0
DICTIONARY
  5
288
330
35
100
AcDbDictionary
280
     1
281
     1
  3
ACAD_XREC_ROUNDTRIP
360
289
  0
DICTIONARY
  5
290
330
39
100
AcDbDictionary
280
     1
281
     1
  3
ACAD_XREC_ROUNDTRIP
360
291
  0
DICTIONARY
  5
274
330
2B
100
AcDbDictionary
280
     1
281
     1
  3
ACAD_XREC_ROUNDTRIP
360
275
  0
DICTIONARY
  5
276
330
2C
100
AcDbDictionary
280
     1
281
     1
  3
ACAD_XREC_ROUNDTRIP
360
277
  0
DICTIONARY
  5
278
330
2D
100
AcDbDictionary
280
     1
281
     1
  3
ACAD_XREC_ROUNDTRIP
360
279
  0
DICTIONARY
  5
27A
330
2E
100
AcDbDictionary
280
     1
281
     1
  3
ACAD_XREC_ROUNDTRIP
360
27B
  0
DICTIONARY
  5
28E
330
38
100
AcDbDictionary
280
     1
281
     1
  3
ACAD_XREC_ROUNDTRIP
360
28F
  0
DICTIONARY
  5
284
330
33
100
AcDbDictionary
280
     1
281
     1
  3
ACAD_XREC_ROUNDTRIP
360
285
  0
DICTIONARY
  5
28C
330
37
100
AcDbDictionary
280
     1
281
     1
  3
ACAD_XREC_ROUNDTRIP
360
28D
  0
XRECORD
  5
297
102
{ACAD_REACTORS
330
296
102
}
330
296
100
AcDbXrecord
280
     1
102
MATERIAL
148
0.0
149
0.0
149
0.0
 93
        0
 94
      127
282
     0
 72
     1
 77
     1
171
     1
175
     1
179
     1
273
     0
  0
XRECORD
  5
295
102
{ACAD_REACTORS
330
294
102
}
330
294
100
AcDbXrecord
280
     1
102
MATERIAL
148
0.0
149
0.0
149
0.0
 93
        0
 94
      127
282
     0
 72
     1
 77
     1
171
     1
175
     1
179
     1
273
     0
  0
XRECORD
  5
299
102
{ACAD_REACTORS
330
298
102
}
330
298
100
AcDbXrecord
280
     1
102
MATERIAL
148
0.0
149
0.0
149
0.0
 93
        0
 94
      127
282
     0
 72
     1
 77
     1
171
     1
175
     1
179
     1
273
     0
  0
XRECORD
  5
27D
102
{ACAD_REACTORS
330
27C
102
}
330
27C
100
AcDbXrecord
280
     1
102
RTVSPropertyOp0
 70
     1
102
RTVSPropertyOp1
 70
     1
102
RTVSPropertyOp2
 70
     1
102
RTVSPropertyOp3
 70
     1
102
RTVSPropertyOp4
 70
     1
102
RTVSPropertyOp5
 70
     1
102
RTVSPropertyOp6
 70
     1
102
RTVSPropertyOp7
 70
     1
102
RTVSPropertyOp8
 70
     1
102
RTVSPropertyOp9
 70
     1
102
RTVSPropertyOp10
 70
     1
102
RTVSPropertyOp11
 70
     1
102
RTVSPropertyOp12
 70
     1
102
RTVSPropertyOp13
 70
     1
102
RTVSPropertyOp14
 70
     1
102
RTVSPropertyOp15
 70
     1
102
RTVSPropertyOp16
 70
     1
102
RTVSPropertyOp17
 70
     1
102
RTVSPropertyOp18
 70
     1
102
RTVSPropertyOp19
 70
     1
102
RTVSPropertyOp20
 70
     1
102
RTVSPropertyOp21
 70
     1
102
RTVSPropertyOp22
 70
     1
102
RTVSPropertyOp23
 70
     1
102
RTVSPropertyOp24
 70
     1
102
RTVSPropertyOp25
 70
     1
102
RTVSPropertyOp26
 70
     1
102
RTVSPropertyOp27
 70
     1
102
RTVSPropertyOp28
 70
     1
102
RTVSPropertyOp29
 70
     1
102
RTVSPropertyOp30
 70
     1
102
RTVSPropertyOp31
 70
     1
102
RTVSPropertyOp32
 70
     1
  0
XRECORD
  5
281
102
{ACAD_REACTORS
330
280
102
}
330
280
100
AcDbXrecord
280
     1
102
RTVSPropertyOp0
 70
     1
102
RTVSPropertyOp1
 70
     1
102
RTVSPropertyOp2
 70
     1
102
RTVSPropertyOp3
 70
     1
102
RTVSPropertyOp4
 70
     1
102
RTVSPropertyOp5
 70
     1
102
RTVSPropertyOp6
 70
     1
102
RTVSPropertyOp7
 70
     1
102
RTVSPropertyOp8
 70
     1
102
RTVSPropertyOp9
 70
     1
102
RTVSPropertyOp10
 70
     1
102
RTVSPropertyOp11
 70
     1
102
RTVSPropertyOp12
 70
     1
102
RTVSPropertyOp13
 70
     1
102
RTVSPropertyOp14
 70
     1
102
RTVSPropertyOp15
 70
     1
102
RTVSPropertyOp16
 70
     1
102
RTVSPropertyOp17
 70
     1
102
RTVSPropertyOp18
 70
     1
102
RTVSPropertyOp19
 70
     1
102
RTVSPropertyOp20
 70
     1
102
RTVSPropertyOp21
 70
     1
102
RTVSPropertyOp22
 70
     1
102
RTVSPropertyOp23
 70
     1
102
RTVSPropertyOp24
 70
     1
102
RTVSPropertyOp25
 70
     1
102
RTVSPropertyOp26
 70
     1
102
RTVSPropertyOp27
 70
     1
102
RTVSPropertyOp28
 70
     1
102
RTVSPropertyOp29
 70
     1
102
RTVSPropertyOp30
 70
     1
102
RTVSPropertyOp31
 70
     1
102
RTVSPropertyOp32
 70
     1
  0
XRECORD
  5
27F
102
{ACAD_REACTORS
330
27E
102
}
330
27E
100
AcDbXrecord
280
     1
102
RTVSPropertyOp0
 70
     1
102
RTVSPropertyOp1
 70
     1
102
RTVSPropertyOp2
 70
     1
102
RTVSPropertyOp3
 70
     1
102
RTVSPropertyOp4
 70
     1
102
RTVSPropertyOp5
 70
     1
102
RTVSPropertyOp6
 70
     1
102
RTVSPropertyOp7
 70
     1
102
RTVSPropertyOp8
 70
     1
102
RTVSPropertyOp9
 70
     1
102
RTVSPropertyOp10
 70
     1
102
RTVSPropertyOp11
 70
     1
102
RTVSPropertyOp12
 70
     1
102
RTVSPropertyOp13
 70
     1
102
RTVSPropertyOp14
 70
     1
102
RTVSPropertyOp15
 70
     1
102
RTVSPropertyOp16
 70
     1
102
RTVSPropertyOp17
 70
     1
102
RTVSPropertyOp18
 70
     1
102
RTVSPropertyOp19
 70
     1
102
RTVSPropertyOp20
 70
     1
102
RTVSPropertyOp21
 70
     1
102
RTVSPropertyOp22
 70
     1
102
RTVSPropertyOp23
 70
     1
102
RTVSPropertyOp24
 70
     1
102
RTVSPropertyOp25
 70
     1
102
RTVSPropertyOp26
 70
     1
102
RTVSPropertyOp27
 70
     1
102
RTVSPropertyOp28
 70
     1
102
RTVSPropertyOp29
 70
     1
102
RTVSPropertyOp30
 70
     1
102
RTVSPropertyOp31
 70
     1
102
RTVSPropertyOp32
 70
     1
  0
XRECORD
  5
283
102
{ACAD_REACTORS
330
282
102
}
330
282
100
AcDbXrecord
280
     1
102
RTVSPropertyOp0
 70
     1
102
RTVSPropertyOp1
 70
     1
102
RTVSPropertyOp2
 70
     1
102
RTVSPropertyOp3
 70
     1
102
RTVSPropertyOp4
 70
     1
102
RTVSPropertyOp5
 70
     1
102
RTVSPropertyOp6
 70
     1
102
RTVSPropertyOp7
 70
     1
102
RTVSPropertyOp8
 70
     1
102
RTVSPropertyOp9
 70
     1
102
RTVSPropertyOp10
 70
     1
102
RTVSPropertyOp11
 70
     1
102
RTVSPropertyOp12
 70
     1
102
RTVSPropertyOp13
 70
     1
102
RTVSPropertyOp14
 70
     1
102
RTVSPropertyOp15
 70
     1
102
RTVSPropertyOp16
 70
     1
102
RTVSPropertyOp17
 70
     1
102
RTVSPropertyOp18
 70
     1
102
RTVSPropertyOp19
 70
     1
102
RTVSPropertyOp20
 70
     1
102
RTVSPropertyOp21
 70
     1
102
RTVSPropertyOp22
 70
     1
102
RTVSPropertyOp23
 70
     1
102
RTVSPropertyOp24
 70
     1
102
RTVSPropertyOp25
 70
     1
102
RTVSPropertyOp26
 70
     1
102
RTVSPropertyOp27
 70
     1
102
RTVSPropertyOp28
 70
     1
102
RTVSPropertyOp29
 70
     1
102
RTVSPropertyOp30
 70
     1
102
RTVSPropertyOp31
 70
     1
102
RTVSPropertyOp32
 70
     1
  0
XRECORD
  5
28B
102
{ACAD_REACTORS
330
28A
102
}
330
28A
100
AcDbXrecord
280
     1
102
RTVSPropertyOp0
 70
     1
102
RTVSPropertyOp1
 70
     1
102
RTVSPropertyOp2
 70
     1
102
RTVSPropertyOp3
 70
     1
102
RTVSPropertyOp4
 70
     1
102
RTVSPropertyOp5
 70
     1
102
RTVSPropertyOp6
 70
     1
102
RTVSPropertyOp7
 70
     1
102
RTVSPropertyOp8
 70
     1
102
RTVSPropertyOp9
 70
     1
102
RTVSPropertyOp10
 70
     1
102
RTVSPropertyOp11
 70
     1
102
RTVSPropertyOp12
 70
     1
102
RTVSPropertyOp13
 70
     1
102
RTVSPropertyOp14
 70
     1
102
RTVSPropertyOp15
 70
     1
102
RTVSPropertyOp16
 70
     1
102
RTVSPropertyOp17
 70
     1
102
RTVSPropertyOp18
 70
     1
102
RTVSPropertyOp19
 70
     1
102
RTVSPropertyOp20
 70
     1
102
RTVSPropertyOp21
 70
     1
102
RTVSPropertyOp22
 70
     1
102
RTVSPropertyOp23
 70
     1
102
RTVSPropertyOp24
 70
     1
102
RTVSPropertyOp25
 70
     1
102
RTVSPropertyOp26
 70
     1
102
RTVSPropertyOp27
 70
     1
102
RTVSPropertyOp28
 70
     1
102
RTVSPropertyOp29
 70
     1
102
RTVSPropertyOp30
 70
     1
102
RTVSPropertyOp31
 70
     1
102
RTVSPropertyOp32
 70
     1
  0
XRECORD
  5
293
102
{ACAD_REACTORS
330
292
102
}
330
292
100
AcDbXrecord
280
     1
102
RTVSPropertyOp0
 70
     1
102
RTVSPropertyOp1
 70
     1
102
RTVSPropertyOp2
 70
     1
102
RTVSPropertyOp3
 70
     1
102
RTVSPropertyOp4
 70
     1
102
RTVSPropertyOp5
 70
     1
102
RTVSPropertyOp6
 70
     1
102
RTVSPropertyOp7
 70
     1
102
RTVSPropertyOp8
 70
     1
102
RTVSPropertyOp9
 70
     1
102
RTVSPropertyOp10
 70
     1
102
RTVSPropertyOp11
 70
     1
102
RTVSPropertyOp12
 70
     1
102
RTVSPropertyOp13
 70
     1
102
RTVSPropertyOp14
 70
     1
102
RTVSPropertyOp15
 70
     1
102
RTVSPropertyOp16
 70
     1
102
RTVSPropertyOp17
 70
     1
102
RTVSPropertyOp18
 70
     1
102
RTVSPropertyOp19
 70
     1
102
RTVSPropertyOp20
 70
     1
102
RTVSPropertyOp21
 70
     1
102
RTVSPropertyOp22
 70
     1
102
RTVSPropertyOp23
 70
     1
102
RTVSPropertyOp24
 70
     1
102
RTVSPropertyOp25
 70
     1
102
RTVSPropertyOp26
 70
     1
102
RTVSPropertyOp27
 70
     1
102
RTVSPropertyOp28
 70
     1
102
RTVSPropertyOp29
 70
     1
102
RTVSPropertyOp30
 70
     1
102
RTVSPropertyOp31
 70
     1
102
RTVSPropertyOp32
 70
     1
  0
XRECORD
  5
287
102
{ACAD_REACTORS
330
286
102
}
330
286
100
AcDbXrecord
280
     1
102
RTVSPropertyOp0
 70
     1
102
RTVSPropertyOp1
 70
     1
102
RTVSPropertyOp2
 70
     1
102
RTVSPropertyOp3
 70
     1
102
RTVSPropertyOp4
 70
     1
102
RTVSPropertyOp5
 70
     1
102
RTVSPropertyOp6
 70
     1
102
RTVSPropertyOp7
 70
     1
102
RTVSPropertyOp8
 70
     1
102
RTVSPropertyOp9
 70
     1
102
RTVSPropertyOp10
 70
     1
102
RTVSPropertyOp11
 70
     1
102
RTVSPropertyOp12
 70
     1
102
RTVSPropertyOp13
 70
     1
102
RTVSPropertyOp14
 70
     1
102
RTVSPropertyOp15
 70
     1
102
RTVSPropertyOp16
 70
     1
102
RTVSPropertyOp17
 70
     1
102
RTVSPropertyOp18
 70
     1
102
RTVSPropertyOp19
 70
     1
102
RTVSPropertyOp20
 70
     1
102
RTVSPropertyOp21
 70
     1
102
RTVSPropertyOp22
 70
     1
102
RTVSPropertyOp23
 70
     1
102
RTVSPropertyOp24
 70
     1
102
RTVSPropertyOp25
 70
     1
102
RTVSPropertyOp26
 70
     1
102
RTVSPropertyOp27
 70
     1
102
RTVSPropertyOp28
 70
     1
102
RTVSPropertyOp29
 70
     1
102
RTVSPropertyOp30
 70
     1
102
RTVSPropertyOp31
 70
     1
102
RTVSPropertyOp32
 70
     1
  0
XRECORD
  5
289
102
{ACAD_REACTORS
330
288
102
}
330
288
100
AcDbXrecord
280
     1
102
RTVSPropertyOp0
 70
     1
102
RTVSPropertyOp1
 70
     1
102
RTVSPropertyOp2
 70
     1
102
RTVSPropertyOp3
 70
     1
102
RTVSPropertyOp4
 70
     1
102
RTVSPropertyOp5
 70
     1
102
RTVSPropertyOp6
 70
     1
102
RTVSPropertyOp7
 70
     1
102
RTVSPropertyOp8
 70
     1
102
RTVSPropertyOp9
 70
     1
102
RTVSPropertyOp10
 70
     1
102
RTVSPropertyOp11
 70
     1
102
RTVSPropertyOp12
 70
     1
102
RTVSPropertyOp13
 70
     1
102
RTVSPropertyOp14
 70
     1
102
RTVSPropertyOp15
 70
     1
102
RTVSPropertyOp16
 70
     1
102
RTVSPropertyOp17
 70
     1
102
RTVSPropertyOp18
 70
     1
102
RTVSPropertyOp19
 70
     1
102
RTVSPropertyOp20
 70
     1
102
RTVSPropertyOp21
 70
     1
102
RTVSPropertyOp22
 70
     1
102
RTVSPropertyOp23
 70
     1
102
RTVSPropertyOp24
 70
     1
102
RTVSPropertyOp25
 70
     1
102
RTVSPropertyOp26
 70
     1
102
RTVSPropertyOp27
 70
     1
102
RTVSPropertyOp28
 70
     1
102
RTVSPropertyOp29
 70
     1
102
RTVSPropertyOp30
 70
     1
102
RTVSPropertyOp31
 70
     1
102
RTVSPropertyOp32
 70
     1
  0
XRECORD
  5
291
102
{ACAD_REACTORS
330
290
102
}
330
290
100
AcDbXrecord
280
     1
102
RTVSPropertyOp0
 70
     1
102
RTVSPropertyOp1
 70
     1
102
RTVSPropertyOp2
 70
     1
102
RTVSPropertyOp3
 70
     1
102
RTVSPropertyOp4
 70
     1
102
RTVSPropertyOp5
 70
     1
102
RTVSPropertyOp6
 70
     1
102
RTVSPropertyOp7
 70
     1
102
RTVSPropertyOp8
 70
     1
102
RTVSPropertyOp9
 70
     1
102
RTVSPropertyOp10
 70
     1
102
RTVSPropertyOp11
 70
     1
102
RTVSPropertyOp12
 70
     1
102
RTVSPropertyOp13
 70
     1
102
RTVSPropertyOp14
 70
     1
102
RTVSPropertyOp15
 70
     1
102
RTVSPropertyOp16
 70
     1
102
RTVSPropertyOp17
 70
     1
102
RTVSPropertyOp18
 70
     1
102
RTVSPropertyOp19
 70
     1
102
RTVSPropertyOp20
 70
     1
102
RTVSPropertyOp21
 70
     1
102
RTVSPropertyOp22
 70
     1
102
RTVSPropertyOp23
 70
     1
102
RTVSPropertyOp24
 70
     1
102
RTVSPropertyOp25
 70
     1
102
RTVSPropertyOp26
 70
     1
102
RTVSPropertyOp27
 70
     1
102
RTVSPropertyOp28
 70
     1
102
RTVSPropertyOp29
 70
     1
102
RTVSPropertyOp30
 70
     1
102
RTVSPropertyOp31
 70
     1
102
RTVSPropertyOp32
 70
     1
  0
XRECORD
  5
275
102
{ACAD_REACTORS
330
274
102
}
330
274
100
AcDbXrecord
280
     1
102
RTVSPropertyOp0
 70
     1
102
RTVSPropertyOp1
 70
     1
102
RTVSPropertyOp2
 70
     1
102
RTVSPropertyOp3
 70
     1
102
RTVSPropertyOp4
 70
     1
102
RTVSPropertyOp5
 70
     1
102
RTVSPropertyOp6
 70
     1
102
RTVSPropertyOp7
 70
     1
102
RTVSPropertyOp8
 70
     1
102
RTVSPropertyOp9
 70
     1
102
RTVSPropertyOp10
 70
     1
102
RTVSPropertyOp11
 70
     1
102
RTVSPropertyOp12
 70
     1
102
RTVSPropertyOp13
 70
     1
102
RTVSPropertyOp14
 70
     1
102
RTVSPropertyOp15
 70
     1
102
RTVSPropertyOp16
 70
     1
102
RTVSPropertyOp17
 70
     1
102
RTVSPropertyOp18
 70
     1
102
RTVSPropertyOp19
 70
     1
102
RTVSPropertyOp20
 70
     1
102
RTVSPropertyOp21
 70
     1
102
RTVSPropertyOp22
 70
     1
102
RTVSPropertyOp23
 70
     1
102
RTVSPropertyOp24
 70
     1
102
RTVSPropertyOp25
 70
     1
102
RTVSPropertyOp26
 70
     1
102
RTVSPropertyOp27
 70
     1
102
RTVSPropertyOp28
 70
     1
102
RTVSPropertyOp29
 70
     1
102
RTVSPropertyOp30
 70
     1
102
RTVSPropertyOp31
 70
     1
102
RTVSPropertyOp32
 70
     1
  0
XRECORD
  5
277
102
{ACAD_REACTORS
330
276
102
}
330
276
100
AcDbXrecord
280
     1
102
RTVSPropertyOp0
 70
     1
102
RTVSPropertyOp1
 70
     1
102
RTVSPropertyOp2
 70
     1
102
RTVSPropertyOp3
 70
     1
102
RTVSPropertyOp4
 70
     1
102
RTVSPropertyOp5
 70
     1
102
RTVSPropertyOp6
 70
     1
102
RTVSPropertyOp7
 70
     1
102
RTVSPropertyOp8
 70
     1
102
RTVSPropertyOp9
 70
     1
102
RTVSPropertyOp10
 70
     1
102
RTVSPropertyOp11
 70
     1
102
RTVSPropertyOp12
 70
     1
102
RTVSPropertyOp13
 70
     1
102
RTVSPropertyOp14
 70
     1
102
RTVSPropertyOp15
 70
     1
102
RTVSPropertyOp16
 70
     1
102
RTVSPropertyOp17
 70
     1
102
RTVSPropertyOp18
 70
     1
102
RTVSPropertyOp19
 70
     1
102
RTVSPropertyOp20
 70
     1
102
RTVSPropertyOp21
 70
     1
102
RTVSPropertyOp22
 70
     1
102
RTVSPropertyOp23
 70
     1
102
RTVSPropertyOp24
 70
     1
102
RTVSPropertyOp25
 70
     1
102
RTVSPropertyOp26
 70
     1
102
RTVSPropertyOp27
 70
     1
102
RTVSPropertyOp28
 70
     1
102
RTVSPropertyOp29
 70
     1
102
RTVSPropertyOp30
 70
     1
102
RTVSPropertyOp31
 70
     1
102
RTVSPropertyOp32
 70
     1
  0
XRECORD
  5
279
102
{ACAD_REACTORS
330
278
102
}
330
278
100
AcDbXrecord
280
     1
102
RTVSPropertyOp0
 70
     1
102
RTVSPropertyOp1
 70
     1
102
RTVSPropertyOp2
 70
     1
102
RTVSPropertyOp3
 70
     1
102
RTVSPropertyOp4
 70
     1
102
RTVSPropertyOp5
 70
     1
102
RTVSPropertyOp6
 70
     1
102
RTVSPropertyOp7
 70
     1
102
RTVSPropertyOp8
 70
     1
102
RTVSPropertyOp9
 70
     1
102
RTVSPropertyOp10
 70
     1
102
RTVSPropertyOp11
 70
     1
102
RTVSPropertyOp12
 70
     1
102
RTVSPropertyOp13
 70
     1
102
RTVSPropertyOp14
 70
     1
102
RTVSPropertyOp15
 70
     1
102
RTVSPropertyOp16
 70
     1
102
RTVSPropertyOp17
 70
     1
102
RTVSPropertyOp18
 70
     1
102
RTVSPropertyOp19
 70
     1
102
RTVSPropertyOp20
 70
     1
102
RTVSPropertyOp21
 70
     1
102
RTVSPropertyOp22
 70
     1
102
RTVSPropertyOp23
 70
     1
102
RTVSPropertyOp24
 70
     1
102
RTVSPropertyOp25
 70
     1
102
RTVSPropertyOp26
 70
     1
102
RTVSPropertyOp27
 70
     1
102
RTVSPropertyOp28
 70
     1
102
RTVSPropertyOp29
 70
     1
102
RTVSPropertyOp30
 70
     1
102
RTVSPropertyOp31
 70
     1
102
RTVSPropertyOp32
 70
     1
  0
XRECORD
  5
27B
102
{ACAD_REACTORS
330
27A
102
}
330
27A
100
AcDbXrecord
280
     1
102
RTVSPropertyOp0
 70
     1
102
RTVSPropertyOp1
 70
     1
102
RTVSPropertyOp2
 70
     1
102
RTVSPropertyOp3
 70
     1
102
RTVSPropertyOp4
 70
     1
102
RTVSPropertyOp5
 70
     1
102
RTVSPropertyOp6
 70
     1
102
RTVSPropertyOp7
 70
     1
102
RTVSPropertyOp8
 70
     1
102
RTVSPropertyOp9
 70
     1
102
RTVSPropertyOp10
 70
     1
102
RTVSPropertyOp11
 70
     1
102
RTVSPropertyOp12
 70
     1
102
RTVSPropertyOp13
 70
     1
102
RTVSPropertyOp14
 70
     1
102
RTVSPropertyOp15
 70
     1
102
RTVSPropertyOp16
 70
     1
102
RTVSPropertyOp17
 70
     1
102
RTVSPropertyOp18
 70
     1
102
RTVSPropertyOp19
 70
     1
102
RTVSPropertyOp20
 70
     1
102
RTVSPropertyOp21
 70
     1
102
RTVSPropertyOp22
 70
     1
102
RTVSPropertyOp23
 70
     1
102
RTVSPropertyOp24
 70
     1
102
RTVSPropertyOp25
 70
     1
102
RTVSPropertyOp26
 70
     1
102
RTVSPropertyOp27
 70
     1
102
RTVSPropertyOp28
 70
     1
102
RTVSPropertyOp29
 70
     1
102
RTVSPropertyOp30
 70
     1
102
RTVSPropertyOp31
 70
     1
102
RTVSPropertyOp32
 70
     1
  0
XRECORD
  5
28F
102
{ACAD_REACTORS
330
28E
102
}
330
28E
100
AcDbXrecord
280
     1
102
RTVSPropertyOp0
 70
     1
102
RTVSPropertyOp1
 70
     1
102
RTVSPropertyOp2
 70
     1
102
RTVSPropertyOp3
 70
     1
102
RTVSPropertyOp4
 70
     1
102
RTVSPropertyOp5
 70
     1
102
RTVSPropertyOp6
 70
     1
102
RTVSPropertyOp7
 70
     1
102
RTVSPropertyOp8
 70
     1
102
RTVSPropertyOp9
 70
     1
102
RTVSPropertyOp10
 70
     1
102
RTVSPropertyOp11
 70
     1
102
RTVSPropertyOp12
 70
     1
102
RTVSPropertyOp13
 70
     1
102
RTVSPropertyOp14
 70
     1
102
RTVSPropertyOp15
 70
     1
102
RTVSPropertyOp16
 70
     1
102
RTVSPropertyOp17
 70
     1
102
RTVSPropertyOp18
 70
     1
102
RTVSPropertyOp19
 70
     1
102
RTVSPropertyOp20
 70
     1
102
RTVSPropertyOp21
 70
     1
102
RTVSPropertyOp22
 70
     1
102
RTVSPropertyOp23
 70
     1
102
RTVSPropertyOp24
 70
     1
102
RTVSPropertyOp25
 70
     1
102
RTVSPropertyOp26
 70
     1
102
RTVSPropertyOp27
 70
     1
102
RTVSPropertyOp28
 70
     1
102
RTVSPropertyOp29
 70
     1
102
RTVSPropertyOp30
 70
     1
102
RTVSPropertyOp31
 70
     1
102
RTVSPropertyOp32
 70
     1
  0
XRECORD
  5
285
102
{ACAD_REACTORS
330
284
102
}
330
284
100
AcDbXrecord
280
     1
102
RTVSPropertyOp0
 70
     1
102
RTVSPropertyOp1
 70
     1
102
RTVSPropertyOp2
 70
     1
102
RTVSPropertyOp3
 70
     1
102
RTVSPropertyOp4
 70
     1
102
RTVSPropertyOp5
 70
     1
102
RTVSPropertyOp6
 70
     1
102
RTVSPropertyOp7
 70
     1
102
RTVSPropertyOp8
 70
     1
102
RTVSPropertyOp9
 70
     1
102
RTVSPropertyOp10
 70
     1
102
RTVSPropertyOp11
 70
     1
102
RTVSPropertyOp12
 70
     1
102
RTVSPropertyOp13
 70
     1
102
RTVSPropertyOp14
 70
     1
102
RTVSPropertyOp15
 70
     1
102
RTVSPropertyOp16
 70
     1
102
RTVSPropertyOp17
 70
     1
102
RTVSPropertyOp18
 70
     1
102
RTVSPropertyOp19
 70
     1
102
RTVSPropertyOp20
 70
     1
102
RTVSPropertyOp21
 70
     1
102
RTVSPropertyOp22
 70
     1
102
RTVSPropertyOp23
 70
     1
102
RTVSPropertyOp24
 70
     1
102
RTVSPropertyOp25
 70
     1
102
RTVSPropertyOp26
 70
     1
102
RTVSPropertyOp27
 70
     1
102
RTVSPropertyOp28
 70
     1
102
RTVSPropertyOp29
 70
     1
102
RTVSPropertyOp30
 70
     1
102
RTVSPropertyOp31
 70
     1
102
RTVSPropertyOp32
 70
     1
  0
XRECORD
  5
28D
102
{ACAD_REACTORS
330
28C
102
}
330
28C
100
AcDbXrecord
280
     1
102
RTVSPropertyOp0
 70
     1
102
RTVSPropertyOp1
 70
     1
102
RTVSPropertyOp2
 70
     1
102
RTVSPropertyOp3
 70
     1
102
RTVSPropertyOp4
 70
     1
102
RTVSPropertyOp5
 70
     1
102
RTVSPropertyOp6
 70
     1
102
RTVSPropertyOp7
 70
     1
102
RTVSPropertyOp8
 70
     1
102
RTVSPropertyOp9
 70
     1
102
RTVSPropertyOp10
 70
     1
102
RTVSPropertyOp11
 70
     1
102
RTVSPropertyOp12
 70
     1
102
RTVSPropertyOp13
 70
     1
102
RTVSPropertyOp14
 70
     1
102
RTVSPropertyOp15
 70
     1
102
RTVSPropertyOp16
 70
     1
102
RTVSPropertyOp17
 70
     1
102
RTVSPropertyOp18
 70
     1
102
RTVSPropertyOp19
 70
     1
102
RTVSPropertyOp20
 70
     1
102
RTVSPropertyOp21
 70
     1
102
RTVSPropertyOp22
 70
     1
102
RTVSPropertyOp23
 70
     1
102
RTVSPropertyOp24
 70
     1
102
RTVSPropertyOp25
 70
     1
102
RTVSPropertyOp26
 70
     1
102
RTVSPropertyOp27
 70
     1
102
RTVSPropertyOp28
 70
     1
102
RTVSPropertyOp29
 70
     1
102
RTVSPropertyOp30
 70
     1
102
RTVSPropertyOp31
 70
     1
102
RTVSPropertyOp32
 70
     1
  0
ENDSEC
  0
EOF
